<?xml version="1.0" encoding="UTF-8"?>
<svg xmlns="http://www.w3.org/2000/svg" xmlns:xlink="http://www.w3.org/1999/xlink" version="1.2" >
<font id="Spinner Rack BB">
<font-face  font-family="Spinner Rack BB" units-per-em="1000" ascent="691" descent="-309" font-style="normal" font-weight="400" font-stretch="normal" cap-height="569" x-height="559" underline-position="-75" underline-thickness="50" />
<missing-glyph  horiz-adv-x="561" d="M69 0 L489 0 L489 613 L69 613 L69 0 Z M174 569 L384 569 L384 42 L174 42 L174 569 Z " />
<glyph glyph-name="NULL" d="" />
<glyph glyph-name="CR" unicode="&#xd;" horiz-adv-x="250" d="" />
<glyph glyph-name="space" unicode="&#x20;" horiz-adv-x="254" d="" />
<glyph glyph-name="exclam" unicode="&#x21;" horiz-adv-x="284" d="M180 58 C182 34 175 16 155 1 C135 -12 110 -13 88 -25 C76 -31 69 -36 56 -28 C40 -18 32 -1 32 16 C32 35 43 54 60 66 C79 79 109 83 131 85 C155 87 177 89 180 58 L180 58 Z M216 578 C190 575 180 542 173 522 C154 467 135 410 119 353 C105 304 84 248 95 198 C98 178 111 172 129 181 C150 193 160 216 168 237 C182 269 192 303 202 336 C213 370 225 403 235 437 C245 467 257 499 256 530 C255 553 246 581 216 578 L216 578 Z " />
<glyph glyph-name="quotedbl" unicode="&#x22;" horiz-adv-x="369" d="M324 319 C333 366 321 410 321 457 C321 473 322 488 322 504 C322 539 318 586 279 586 C252 586 233 559 233 538 C233 524 231 511 231 494 C231 464 235 433 235 403 C235 378 241 283 282 283 C304 283 322 303 324 319 L324 319 Z M99 562 C37 562 47 438 47 410 C47 355 57 264 100 264 C121 264 140 281 140 306 C140 387 139 388 139 414 C139 434 139 450 139 465 C139 485 143 503 143 519 C143 544 123 560 99 562 L99 562 Z " />
<glyph glyph-name="numbersign" unicode="&#x23;" horiz-adv-x="615" d="M550 215 C537 220 504 221 471 221 C471 230 471 239 472 248 C473 274 476 300 477 326 C510 327 543 328 556 332 C574 339 583 356 583 372 C583 392 572 412 550 418 C538 419 510 419 481 418 C481 455 480 486 466 519 C455 541 437 553 417 542 C389 528 384 497 384 464 C384 446 386 428 387 411 C361 409 316 406 276 403 C276 422 274 440 270 456 C265 480 260 503 243 521 C232 534 214 544 197 538 C170 528 171 502 176 477 C184 449 181 423 181 396 C161 393 139 392 117 391 C106 389 95 388 86 380 C75 372 70 353 69 341 C65 296 131 299 161 301 C167 303 175 303 184 304 C184 287 185 270 184 253 C183 239 181 225 180 209 C175 209 170 209 166 209 C148 208 129 208 111 206 C92 203 76 206 60 194 C47 185 33 172 39 154 C43 142 58 127 69 119 C87 106 120 114 141 115 C149 116 162 116 179 118 C177 105 177 92 177 80 C177 56 181 31 195 8 C203 -5 217 -12 230 -12 C250 -12 268 1 272 23 C276 44 270 67 270 87 C270 98 270 110 272 122 C317 124 361 127 380 128 C379 117 379 106 378 96 C376 79 373 61 376 44 C379 32 388 12 396 5 C406 -4 427 4 437 10 C467 30 468 88 468 128 C520 131 573 140 574 176 C574 189 561 208 550 215 L550 215 Z M272 213 C270 246 272 278 273 310 C317 313 362 317 391 319 C389 290 387 261 386 231 C386 228 384 222 384 219 C361 217 316 216 272 213 L272 213 Z " />
<glyph glyph-name="dollar" unicode="&#x24;" horiz-adv-x="562" d="M26 107 C26 4 166 -25 255 -27 L255 -76 C255 -98 255 -111 274 -124 C290 -133 305 -139 320 -126 C349 -102 346 -66 342 -31 L340 -17 C436 7 533 76 533 184 C533 275 419 306 353 310 L339 310 L342 481 C363 476 382 420 433 420 C453 420 464 438 464 460 C464 536 383 567 345 570 C346 588 346 606 339 622 C334 635 318 653 303 652 C282 649 271 628 268 612 C264 593 260 572 259 552 L225 537 C143 496 92 433 87 337 C95 264 200 233 260 225 C260 216 259 207 259 199 C257 177 256 123 256 68 L246 68 C202 68 123 74 92 115 C81 129 69 134 54 134 C38 134 26 127 26 107 L26 107 Z M434 187 C434 138 388 104 337 85 C336 128 336 172 336 200 L336 218 C381 212 434 203 434 187 L434 187 Z M180 365 C180 391 215 426 259 451 C259 407 260 359 260 319 C219 327 180 341 180 365 L180 365 Z " />
<glyph glyph-name="percent" unicode="&#x25;" horiz-adv-x="755" d="M709 535 C706 548 691 566 679 572 C671 575 664 574 655 573 C638 572 622 570 607 568 C586 565 568 557 549 553 C532 550 518 550 501 548 C474 546 445 542 418 542 C395 542 371 544 351 552 C325 562 299 575 271 579 C247 583 221 570 201 560 C172 546 143 531 118 511 C84 485 53 441 49 398 C42 327 106 287 168 287 C183 287 196 290 208 294 C245 304 278 323 308 340 C330 354 351 384 364 407 C373 423 383 441 386 459 C412 460 435 463 461 463 C489 464 519 472 547 469 C530 447 508 429 488 411 C455 383 424 350 390 325 C358 300 333 270 302 243 C281 224 163 114 144 93 C130 80 112 52 112 28 C112 16 117 4 131 -3 C152 -12 161 -3 175 12 C193 28 210 49 227 67 C249 91 370 202 393 222 C419 243 434 261 454 275 C480 294 502 318 527 337 C550 354 571 375 591 394 C608 411 627 431 646 445 C662 458 675 475 691 489 C702 500 712 517 709 535 L709 535 Z M295 425 C287 419 278 414 271 407 C263 400 251 393 241 387 C223 378 197 371 177 370 C167 369 126 365 121 375 C118 380 127 396 130 401 C136 411 144 419 153 427 C180 453 216 471 251 484 C258 486 264 489 272 490 C281 491 282 489 290 485 C300 481 313 473 324 475 C325 456 308 436 295 425 L295 425 Z M583 241 C574 239 567 233 556 231 C512 231 479 220 443 198 C426 186 409 172 399 154 C378 122 369 84 375 47 C378 26 384 4 396 -12 C408 -27 428 -35 445 -41 C476 -50 507 -41 536 -34 C563 -27 586 -16 609 1 C648 28 673 65 678 111 C682 151 666 190 638 219 C624 233 605 244 583 241 L583 241 Z M617 125 C615 112 594 92 583 84 C567 72 550 58 532 50 C519 45 499 39 481 39 C463 39 446 45 441 65 C436 85 458 105 472 116 C493 132 518 141 542 147 C558 153 578 159 593 159 C605 159 620 140 617 125 L617 125 Z " />
<glyph glyph-name="ampersand" unicode="&#x26;" horiz-adv-x="692" d="M203 550 C170 542 134 529 110 503 C86 478 69 450 67 414 C66 398 67 380 71 365 C75 349 85 337 93 323 C100 312 108 301 116 291 C106 278 91 269 82 255 C73 242 66 225 59 211 C53 194 49 176 49 158 C49 141 53 124 58 107 C69 78 81 49 104 26 C117 12 138 4 155 -1 C170 -5 186 -6 203 -10 C238 -17 280 -10 316 -3 C356 5 377 13 413 30 C430 39 443 49 457 62 C472 75 486 91 495 107 C503 123 510 140 514 156 C520 179 518 206 518 229 C552 231 591 226 619 242 C650 259 667 273 653 308 C637 347 605 337 572 335 C540 331 508 322 475 322 C441 322 420 297 426 261 C429 244 433 230 433 215 C433 199 429 184 419 168 C398 138 367 115 333 105 C302 94 267 84 234 84 C203 84 163 81 143 111 C138 118 134 125 130 133 C125 144 128 146 133 158 C142 175 159 194 174 203 C205 219 228 235 262 239 C279 241 293 242 310 243 C325 244 337 251 341 270 C347 303 341 328 310 336 C279 343 234 340 203 347 C174 353 155 383 148 406 C173 438 213 451 244 453 C260 453 276 454 293 453 C310 451 320 442 335 432 C368 409 386 462 381 491 C377 506 368 520 356 529 C329 551 298 559 266 559 C244 559 223 555 203 550 L203 550 Z " />
<glyph glyph-name="quotesingle" unicode="&#x27;" horiz-adv-x="202" d="M148 319 C157 366 145 410 145 457 C145 473 146 488 146 504 C146 539 142 586 103 586 C76 586 57 559 57 538 C57 524 55 511 55 494 C55 464 59 433 59 403 C59 378 65 283 106 283 C128 283 146 303 148 319 L148 319 Z " />
<glyph glyph-name="parenleft" unicode="&#x28;" horiz-adv-x="334" d="M140 530 C119 500 104 468 89 434 C73 401 58 366 53 328 C49 296 46 265 46 233 C46 167 60 106 80 44 C93 -4 115 -63 161 -89 C174 -97 192 -103 205 -88 C215 -75 213 -50 205 -37 C186 -1 165 31 152 70 C144 92 140 115 135 138 C129 166 125 193 124 221 C121 279 133 334 156 385 C179 436 204 486 243 526 C266 551 318 557 310 601 C307 619 294 641 275 643 C223 645 169 565 140 530 L140 530 Z " />
<glyph glyph-name="parenright" unicode="&#x29;" horiz-adv-x="313" d="M265 343 C259 397 241 456 215 504 C197 541 174 574 143 600 C124 614 113 632 90 637 C66 643 56 632 46 612 C24 568 78 544 103 519 C148 469 171 419 178 352 C181 319 183 283 183 248 C183 199 179 151 166 107 C158 83 149 54 136 31 C124 13 113 -4 104 -25 C96 -41 91 -58 96 -78 C103 -101 121 -94 137 -85 C179 -63 209 -21 228 19 C254 78 264 140 267 202 C268 226 268 252 268 278 C268 300 268 322 265 343 L265 343 Z " />
<glyph glyph-name="asterisk" unicode="&#x2a;" horiz-adv-x="517" d="M430 401 C465 422 502 458 475 482 C458 498 434 500 406 487 C381 475 355 463 328 451 C331 476 337 507 337 533 C337 562 330 586 303 591 C291 594 271 582 263 566 C249 539 249 494 245 462 C245 456 238 423 238 424 C218 440 197 456 178 473 C159 489 141 506 119 512 C87 520 58 490 73 471 C84 455 101 438 116 424 C128 410 143 398 157 385 C134 378 110 370 87 361 C62 349 44 344 41 323 C35 297 59 290 88 290 C109 290 134 294 152 299 C176 306 202 314 228 323 C225 301 222 279 222 257 C220 233 215 216 222 194 C228 176 238 156 255 162 C267 166 284 182 293 194 C306 212 307 246 308 272 C319 265 329 259 339 253 C365 239 398 221 426 243 C440 252 437 259 425 277 C414 292 403 306 386 318 C368 331 348 344 330 358 C365 370 400 383 430 401 L430 401 Z " />
<glyph glyph-name="plus" unicode="&#x2b;" horiz-adv-x="441" d="M404 268 C408 286 408 299 391 313 C377 325 360 327 341 326 C311 325 282 322 253 321 C257 340 259 359 262 379 C264 394 273 419 267 433 C262 445 235 455 223 454 C185 450 172 409 170 374 C167 353 165 332 161 310 C129 310 25 313 30 256 C32 242 44 229 59 222 C73 216 88 220 105 222 C121 224 136 224 152 225 C150 211 149 197 148 182 C147 169 145 155 145 142 C145 122 149 102 171 92 C184 87 197 76 210 88 C241 112 238 150 240 187 C240 202 240 216 241 230 C284 233 325 234 366 241 C386 243 399 248 404 268 L404 268 Z " />
<glyph glyph-name="comma" unicode="&#x2c;" horiz-adv-x="222" d="M189 166 C188 185 182 199 163 210 C149 219 132 219 119 209 C104 197 104 183 101 168 C90 102 52 46 44 -17 C42 -31 40 -51 48 -64 C56 -75 73 -87 88 -81 C147 -55 191 113 189 166 L189 166 Z " />
<glyph glyph-name="hyphen" unicode="&#x2d;" horiz-adv-x="357" d="M274 325 C234 317 194 308 153 303 C136 301 118 300 100 299 C84 299 67 299 53 287 C40 276 29 227 49 220 C61 215 78 213 91 212 C145 210 228 213 281 237 C292 241 307 247 316 257 C332 273 338 309 313 319 C300 325 289 327 274 325 L274 325 Z " />
<glyph glyph-name="period" unicode="&#x2e;" horiz-adv-x="211" d="M71 67 C51 51 38 31 38 11 C38 -7 64 -32 85 -32 C138 -32 173 62 173 73 C173 86 156 112 133 112 C103 112 88 81 71 67 L71 67 Z " />
<glyph glyph-name="slash" unicode="&#x2f;" horiz-adv-x="456" d="M288 459 C269 428 160 230 142 198 C111 145 80 89 52 35 C37 6 3 -61 40 -80 C52 -85 79 -72 89 -65 C105 -54 115 -27 123 -9 C150 48 177 107 211 160 C243 216 367 436 401 490 C422 524 454 559 438 599 C429 619 414 622 394 612 C369 599 358 570 341 546 C323 519 306 487 288 459 L288 459 Z " />
<glyph glyph-name="zero" unicode="0" horiz-adv-x="621" d="M587 297 C582 328 578 365 564 394 C555 412 544 431 531 446 C515 468 497 487 480 508 C468 524 454 539 436 546 C423 551 409 552 394 553 C383 555 372 559 362 560 C336 560 308 553 284 548 C234 535 187 512 149 481 C115 455 89 420 72 381 C58 347 40 312 31 274 C27 255 25 235 25 216 C25 198 27 178 31 159 C36 137 47 114 56 93 C67 69 88 57 107 41 C127 26 147 21 168 9 C189 -3 202 -10 225 -12 C239 -13 255 -14 269 -14 C297 -14 326 -12 352 -5 C371 -1 393 4 411 13 C434 23 451 39 472 54 C493 69 511 81 526 102 C541 124 556 144 568 167 C586 204 596 253 587 297 L587 297 Z M481 203 C434 117 345 63 239 72 C221 75 200 84 182 91 C168 96 150 105 138 116 C111 146 110 193 116 226 C123 269 126 300 148 333 C170 366 194 401 223 425 C251 450 312 459 350 459 C369 459 387 451 405 445 C442 431 476 394 493 356 C499 340 505 312 508 295 C513 260 496 231 481 203 L481 203 Z " />
<glyph glyph-name="one" unicode="1" horiz-adv-x="287" d="M241 335 C244 370 239 406 241 441 C241 463 241 480 235 502 C226 537 191 579 154 547 C136 533 120 517 101 502 C79 485 70 476 50 459 C33 446 23 433 23 411 C21 392 29 372 52 372 C67 372 86 389 99 397 C117 407 121 414 139 424 C144 428 151 431 156 433 C169 383 156 315 156 266 C153 208 144 153 140 94 C139 84 138 67 138 50 C138 21 143 -9 171 -13 C219 -19 222 48 226 80 C227 126 229 169 232 211 C235 252 240 294 241 335 L241 335 Z " />
<glyph glyph-name="two" unicode="2" horiz-adv-x="461" d="M132 499 C110 489 83 475 70 453 C65 441 61 428 61 415 C59 396 66 387 84 380 C102 375 115 380 129 391 C146 405 162 419 181 428 C211 444 241 454 273 462 C294 467 318 469 337 463 C331 441 318 419 308 398 C279 344 187 242 149 194 C128 168 106 142 84 119 C70 106 52 92 40 76 C19 48 28 14 58 -4 C75 -14 91 -13 110 -10 C142 -8 175 -6 207 -4 C266 1 326 9 384 19 C401 22 415 28 424 45 C432 61 425 79 411 87 C396 97 384 98 365 97 C349 96 334 91 317 89 C290 88 261 87 234 85 C211 83 187 86 164 81 C179 98 185 115 202 132 C219 150 231 169 247 187 C279 226 359 325 389 365 C414 400 425 434 418 475 C411 508 389 529 361 546 C345 553 330 557 313 557 C294 557 274 552 253 547 C224 539 195 530 168 517 C155 511 144 506 132 499 L132 499 Z " />
<glyph glyph-name="three" unicode="3" horiz-adv-x="530" d="M155 525 C122 516 80 500 60 469 C46 447 49 423 69 406 C87 393 97 397 115 407 C137 420 160 432 184 440 C219 451 259 456 296 460 C319 462 354 469 376 460 C375 427 359 394 333 374 C301 347 258 326 219 314 C187 305 147 305 121 277 C112 266 109 250 113 235 C118 221 137 215 150 212 C173 208 195 217 218 222 C249 228 280 231 311 229 C332 228 351 228 371 217 C389 209 399 197 409 185 C371 153 329 122 281 106 C237 92 190 75 144 84 C128 88 112 91 98 98 C85 105 73 116 59 112 C45 109 36 89 33 76 C29 54 38 41 53 27 C81 -1 118 -12 156 -12 C178 -12 201 -8 222 -3 C294 16 368 37 430 81 C466 107 491 163 488 209 C484 255 426 292 389 305 C393 309 408 322 415 332 C431 356 448 385 453 415 C462 455 452 487 433 521 C408 560 355 559 316 555 C285 551 254 546 223 539 C200 535 177 530 155 525 L155 525 Z " />
<glyph glyph-name="four" unicode="4" horiz-adv-x="457" d="M414 401 C416 428 414 455 410 482 C408 515 394 565 360 555 C347 551 339 535 337 521 C334 500 333 478 332 458 C330 436 330 411 328 389 C325 369 323 349 320 330 C295 332 272 328 248 327 C206 324 169 314 123 319 C125 343 125 367 126 391 C127 414 132 473 127 497 C122 526 105 568 66 544 C46 531 41 497 41 463 C41 436 43 409 43 393 C42 367 45 341 45 316 C45 299 47 282 56 268 C66 252 82 238 99 229 C116 221 132 222 151 222 C174 222 197 229 220 230 C248 233 276 234 304 233 C298 203 291 173 288 144 C285 122 281 96 281 70 C281 48 285 27 294 10 C303 -4 316 -16 332 -9 C345 -4 356 16 360 30 C366 50 364 72 365 93 C366 114 373 133 376 154 C377 175 382 195 386 216 C392 248 400 279 404 312 C408 341 413 371 414 401 L414 401 Z " />
<glyph glyph-name="five" unicode="5" horiz-adv-x="490" d="M316 12 C386 35 463 87 454 172 C445 259 347 310 269 318 C255 319 241 319 227 319 C214 319 209 317 192 316 C201 353 212 397 232 432 C234 437 238 442 241 447 C253 446 264 445 276 445 C304 444 334 449 362 451 C397 455 458 469 452 515 C449 529 440 547 424 550 C415 552 403 548 393 547 C378 546 362 543 347 541 C311 533 273 530 237 529 C210 528 181 534 156 529 C122 524 125 465 145 445 C143 436 137 425 134 418 C124 396 118 374 112 352 C101 319 78 279 90 246 C96 226 109 221 123 221 C139 221 157 228 171 231 C202 239 255 236 287 228 C321 220 352 197 366 166 C383 132 298 97 273 92 C249 85 232 85 206 83 C187 81 157 83 137 87 C121 91 105 98 88 101 C75 103 51 107 40 97 C31 85 30 63 37 50 C43 35 57 26 70 17 C90 5 113 0 135 -1 C163 -4 193 -6 220 -5 C253 -3 285 1 316 12 L316 12 Z " />
<glyph glyph-name="six" unicode="6" horiz-adv-x="517" d="M454 283 C425 305 387 314 348 314 C297 314 244 297 205 273 C140 229 141 217 113 155 C109 172 108 187 108 204 C108 262 128 321 166 365 C180 383 196 402 216 416 C237 431 263 447 287 456 C304 462 322 467 339 468 C355 469 370 471 375 489 C381 503 369 529 359 538 C344 550 324 552 306 551 C276 550 241 535 215 520 C185 503 158 481 132 456 C97 422 64 379 46 332 C38 309 33 286 31 262 C26 153 41 126 110 49 C148 10 196 -6 246 -6 C307 -6 369 18 417 53 C436 67 449 89 461 110 C474 132 485 158 488 184 C490 222 485 260 454 283 L454 283 Z M391 166 C369 132 334 111 299 94 C282 87 258 79 236 79 C220 79 206 83 194 92 C184 101 189 127 193 140 C197 155 207 172 220 184 C234 195 253 206 269 213 C303 228 333 233 369 226 C373 225 417 215 417 213 C412 197 401 181 391 166 L391 166 Z " />
<glyph glyph-name="seven" unicode="7" horiz-adv-x="447" d="M235 314 C217 287 203 270 184 244 C166 220 147 184 136 156 C127 133 115 111 109 87 C106 75 102 56 102 39 C102 17 109 -4 134 -1 C150 1 162 18 168 31 C187 70 201 108 221 146 C234 171 252 193 266 216 C282 242 303 265 321 290 C345 321 366 353 387 388 C403 416 424 450 424 484 C424 497 420 509 414 522 C402 543 381 544 359 546 C336 547 314 547 291 544 C219 538 146 538 76 516 C59 509 37 497 28 482 C21 469 18 445 27 432 C37 418 62 422 76 424 C97 428 118 433 138 436 C186 442 234 444 283 449 C297 450 314 450 328 449 C316 418 258 341 235 314 L235 314 Z " />
<glyph glyph-name="eight" unicode="8" horiz-adv-x="547" d="M419 291 C429 299 438 308 446 317 C468 341 486 369 499 398 C506 415 509 432 509 449 C509 484 494 516 459 535 C436 548 407 551 381 556 C350 564 317 564 284 562 C219 560 144 552 92 509 C61 485 23 438 31 396 C39 352 87 314 128 301 C141 297 155 292 168 288 C163 284 158 282 153 278 C124 259 93 237 74 207 C58 182 54 154 56 125 C56 61 116 16 175 0 C269 -24 307 -22 391 13 C424 27 460 50 482 79 C500 102 509 134 513 163 C518 206 474 271 419 291 L419 291 Z M123 414 C128 420 134 425 142 431 C163 444 182 455 207 462 C237 469 270 484 301 481 C346 476 387 459 429 453 C431 428 414 396 397 380 C371 354 341 347 305 347 C284 347 264 348 243 350 C225 352 207 359 189 366 C176 372 106 397 123 414 L123 414 Z M436 162 C409 111 353 88 299 79 C284 78 270 76 256 76 C239 76 222 78 207 80 C190 84 168 89 154 102 C144 111 127 124 133 137 C144 158 159 171 176 184 C207 207 246 228 286 231 C303 233 322 233 339 228 C367 217 404 202 427 184 C434 176 441 171 436 162 L436 162 Z " />
<glyph glyph-name="nine" unicode="9" horiz-adv-x="513" d="M483 480 C476 499 467 502 452 511 C439 519 430 535 417 546 C396 560 365 570 341 572 C304 573 267 564 231 557 C200 551 164 543 134 529 C113 519 90 502 72 484 C55 467 45 438 38 414 C32 391 32 365 39 341 C49 318 69 296 87 282 C117 259 178 254 211 264 C235 269 258 278 281 284 C299 291 321 303 336 303 C312 251 273 191 248 133 C228 94 211 48 220 4 C227 -21 255 -39 275 -16 C282 -5 285 9 290 21 C301 43 311 66 323 88 C334 109 345 132 356 153 C372 180 405 256 418 283 C429 306 440 334 452 354 C465 379 475 402 484 429 C489 446 488 463 483 480 L483 480 Z M337 411 C316 396 290 384 268 372 C230 355 177 343 139 350 C131 352 111 353 107 362 C101 371 113 393 118 400 C145 437 198 454 240 464 C268 469 295 473 323 473 C343 473 370 471 389 460 C374 441 356 427 337 411 L337 411 Z " />
<glyph glyph-name="colon" unicode="&#x3a;" horiz-adv-x="186" d="M145 393 C146 400 150 409 150 418 C150 435 134 448 118 448 C110 448 96 444 83 434 C76 430 35 390 35 366 C35 339 52 324 81 324 C124 324 136 365 145 393 L145 393 Z M113 216 C81 216 40 149 39 137 C39 113 50 87 78 87 C119 92 144 134 144 171 C144 188 123 216 113 216 L113 216 Z " />
<glyph glyph-name="semicolon" unicode="&#x3b;" horiz-adv-x="239" d="M186 218 C181 220 174 222 167 222 C120 222 120 166 101 131 C79 90 61 44 40 6 C36 -3 31 -13 31 -23 C31 -43 45 -63 66 -63 C99 -63 123 -16 140 9 C157 35 169 62 182 93 C193 118 208 146 208 176 C208 193 202 212 186 218 L186 218 Z M203 369 C206 386 205 420 177 420 C152 420 107 367 107 338 C107 318 118 300 135 300 C181 300 192 324 203 369 L203 369 Z " />
<glyph glyph-name="less" unicode="&#x3c;" horiz-adv-x="451" d="M232 472 C180 420 124 344 65 286 C48 269 32 247 32 222 C32 181 74 160 102 138 C177 70 244 30 347 3 C357 0 370 -3 382 -3 C406 -3 424 6 424 34 C420 68 369 76 338 92 C318 102 296 110 276 123 C253 137 225 143 205 160 C179 181 153 202 126 221 C161 279 208 322 243 357 C272 386 297 414 324 445 C337 460 356 477 356 511 C356 536 339 547 325 547 C291 547 249 492 232 472 L232 472 Z " />
<glyph glyph-name="equal" unicode="&#x3d;" horiz-adv-x="435" d="M388 176 C386 115 304 131 264 128 C224 124 184 123 144 120 C123 119 90 111 72 124 C61 132 46 146 42 159 C35 177 50 190 63 199 C79 211 95 208 114 211 C132 213 150 213 169 213 C205 216 242 216 278 219 C303 219 339 226 364 216 C375 209 388 190 388 176 L388 176 Z M163 306 C206 312 250 314 293 321 C317 325 346 326 370 334 C388 340 397 357 397 374 C397 393 386 414 364 418 C341 423 311 415 288 412 C262 409 235 405 209 402 C179 400 149 398 119 396 C109 394 97 392 88 385 C78 378 73 358 72 347 C68 301 134 303 163 306 L163 306 Z " />
<glyph glyph-name="greater" unicode="&#x3e;" horiz-adv-x="408" d="M224 118 C281 162 369 235 374 295 C374 343 323 360 296 384 C271 405 245 423 222 442 C181 477 128 562 99 562 C74 562 66 545 66 522 C69 495 89 475 102 453 C130 405 163 370 206 339 C227 324 258 303 278 284 C266 264 244 249 226 234 C167 184 39 101 38 16 C38 2 47 -17 65 -17 C81 -17 98 4 109 18 C143 61 181 86 224 118 L224 118 Z " />
<glyph glyph-name="question" unicode="&#x3f;" horiz-adv-x="480" d="M243 280 C314 334 468 415 445 506 C433 549 365 563 296 563 C264 563 231 560 204 555 C152 547 76 527 58 468 C53 419 118 441 151 455 C185 469 226 476 261 477 C296 479 345 477 349 467 C353 457 322 436 300 415 C239 365 220 349 159 318 C131 305 70 263 61 229 C50 190 82 169 115 188 C137 200 188 228 243 280 L243 280 Z M201 77 C183 85 173 81 155 75 C135 66 96 66 83 47 C76 36 78 21 79 9 C80 -4 94 -10 106 -14 C119 -18 162 -13 175 -8 C200 4 260 56 201 77 L201 77 Z " />
<glyph glyph-name="at" unicode="&#x40;" horiz-adv-x="687" d="M640 371 C637 401 629 429 613 454 C578 506 531 546 472 569 C450 578 426 582 403 582 C380 582 355 578 333 570 C316 565 300 559 284 551 C210 520 144 473 106 405 C70 342 37 275 37 206 C35 149 45 87 80 40 C111 -1 151 -39 208 -36 C248 -35 302 -19 319 19 C327 35 319 49 302 54 C288 58 266 52 252 48 C234 44 217 37 199 40 C181 43 165 57 154 71 C122 109 112 162 117 211 C128 337 230 481 408 489 C429 490 459 494 477 484 C495 473 517 446 527 431 C549 397 554 378 561 339 C566 305 561 256 540 226 C530 212 513 187 497 180 C487 175 464 166 459 177 C454 195 459 231 457 251 C456 269 454 288 442 303 C435 309 433 312 432 321 C429 331 425 340 420 349 C410 367 391 383 373 393 C349 407 322 398 297 385 C271 371 247 347 227 323 C207 300 194 262 194 226 C194 204 199 182 210 164 C227 137 254 128 283 128 C318 128 355 142 385 160 C390 132 421 103 451 96 C492 85 536 110 569 132 C615 166 636 222 642 275 C645 308 644 340 640 371 L640 371 Z M350 241 C329 224 293 208 266 206 C267 220 272 233 280 244 C293 266 307 284 333 294 C336 295 373 305 373 297 C375 277 366 255 350 241 L350 241 Z " />
<glyph glyph-name="A" unicode="A" horiz-adv-x="582" d="M541 101 C535 125 528 149 522 173 C507 237 489 297 466 358 C453 389 436 419 422 449 C410 476 398 504 380 528 C365 548 343 555 318 557 C290 560 274 543 255 521 C204 463 169 385 136 316 C123 287 34 115 34 31 C34 5 43 -13 65 -14 C89 -17 107 -5 116 19 C127 47 129 70 138 96 C141 103 144 111 146 118 C214 129 287 144 358 150 C379 153 405 153 431 159 C439 128 456 75 469 48 C482 23 500 8 517 8 C530 8 542 17 550 39 C556 58 547 80 541 101 L541 101 Z M332 246 C301 242 278 239 247 233 C229 230 211 228 193 225 C207 255 220 284 234 313 C251 347 291 423 316 449 C343 393 376 322 400 255 C372 253 352 249 332 246 L332 246 Z " />
<glyph glyph-name="B" unicode="B" horiz-adv-x="549" d="M408 300 C437 335 467 370 467 415 C465 463 440 481 401 512 C386 526 371 538 349 546 C330 553 308 555 287 556 C240 557 205 547 162 535 C139 529 114 535 92 521 C82 515 78 506 74 497 C66 468 74 450 71 422 C70 402 64 381 61 361 C59 331 61 301 61 272 C61 257 60 243 59 229 C57 207 56 176 56 154 C56 131 57 109 57 88 C57 52 52 6 97 -6 C134 -16 202 -18 254 -17 C269 -16 282 -14 294 -14 C343 -9 399 5 440 34 C481 63 516 92 519 140 C524 209 470 273 408 300 L408 300 Z M159 446 C159 446 240 458 281 464 C325 471 369 450 371 414 C373 375 338 340 287 319 C259 308 223 303 198 301 C177 301 158 303 152 304 C152 304 161 415 159 446 L159 446 Z M418 172 C427 146 395 112 347 96 C334 92 289 76 268 76 C252 76 233 76 215 76 C179 76 146 76 146 76 C144 105 148 211 148 211 C154 208 183 204 209 208 C233 213 320 230 339 229 C357 225 405 203 418 172 L418 172 Z " />
<glyph glyph-name="C" unicode="C" horiz-adv-x="552" d="M412 553 C397 559 376 561 357 561 C316 561 283 551 251 537 C193 513 138 472 103 422 C76 381 44 341 40 292 C39 278 37 264 37 250 C37 211 44 169 58 133 C74 89 115 43 158 13 C199 -16 255 -19 302 -18 C352 -17 403 -8 442 16 C459 27 476 45 490 58 C515 83 534 144 490 155 C472 160 465 147 454 138 C408 103 372 71 312 71 C286 72 252 74 227 81 C194 92 167 111 150 140 C130 173 121 220 125 255 C128 290 143 322 159 353 C171 376 200 402 218 422 C233 434 283 460 302 467 C319 473 365 482 380 475 C420 454 408 450 430 427 C441 416 472 410 483 415 C523 436 499 498 473 519 C452 535 437 546 412 553 L412 553 Z " />
<glyph glyph-name="D" unicode="D" horiz-adv-x="536" d="M486 420 C477 462 438 493 407 519 C380 541 345 548 310 556 C292 561 275 562 257 562 C237 562 217 560 195 556 C177 552 162 547 143 544 C127 543 109 546 90 542 C75 538 54 525 49 507 C45 491 50 477 52 462 C52 426 52 394 54 361 C60 305 59 250 59 197 C59 139 59 91 65 41 C67 26 66 9 78 -1 C92 -16 112 -19 132 -19 C146 -19 160 -17 174 -16 C194 -13 212 -6 230 -4 C248 -1 274 8 291 16 C337 34 396 67 425 119 C436 138 450 154 468 191 C489 231 493 265 498 309 C502 348 494 384 486 420 L486 420 Z M406 269 C389 206 352 147 284 114 C231 85 141 83 141 83 C141 83 146 195 147 238 C149 281 145 450 145 450 C173 451 268 478 268 478 C362 467 393 427 403 406 C409 393 415 370 415 337 C415 317 412 294 406 269 L406 269 Z " />
<glyph glyph-name="E" unicode="E" horiz-adv-x="487" d="M436 480 C457 498 453 515 438 535 C425 552 355 556 326 556 C271 556 210 554 154 543 C132 538 104 539 85 528 C66 515 64 480 63 458 C60 436 60 407 60 376 C60 326 61 272 63 234 C64 180 56 138 55 84 C53 32 72 -16 128 -13 C156 -12 176 0 202 5 C227 10 324 19 350 22 C375 23 404 32 427 43 C443 49 458 72 450 96 C445 112 423 115 409 115 C396 115 382 119 339 111 C297 103 180 96 138 92 C138 122 140 125 143 147 C145 171 145 184 144 207 C161 211 169 212 185 216 C205 220 311 230 338 229 C361 228 388 229 412 241 C427 248 432 262 428 281 C422 313 375 319 333 319 C271 319 208 313 144 305 C145 331 141 367 143 379 C143 405 150 423 149 446 C193 458 323 468 369 466 C395 464 414 460 436 480 L436 480 Z " />
<glyph glyph-name="F" unicode="F" horiz-adv-x="474" d="M140 316 C141 332 143 375 144 392 C144 400 147 432 147 432 C147 432 166 436 171 437 C189 441 200 444 218 446 C286 454 304 451 374 456 C404 459 453 469 441 504 C436 522 414 535 391 538 C379 539 366 539 352 539 C338 539 324 539 313 539 C270 538 226 539 176 541 C144 541 103 537 72 508 C59 495 56 484 57 463 C59 442 59 423 59 403 C59 374 56 346 56 294 C56 244 54 188 57 138 C60 110 63 68 66 40 C69 25 70 10 82 -2 C94 -12 114 -13 126 -13 C143 -12 145 -4 149 10 C156 31 156 43 153 64 C150 85 145 123 143 144 C141 164 141 184 144 204 C166 208 189 211 213 212 C256 216 267 217 311 219 C333 220 428 225 439 250 C445 265 436 281 422 292 C407 305 367 308 344 308 C310 308 282 306 246 305 C210 303 207 303 171 300 C161 299 150 299 140 297 C140 303 140 309 140 316 L140 316 Z " />
<glyph glyph-name="G" unicode="G" horiz-adv-x="681" d="M390 565 C375 566 358 561 342 559 C303 551 265 542 228 526 C190 508 153 495 124 464 C99 438 76 409 59 378 C34 327 41 265 49 213 C52 181 68 143 84 119 C105 83 124 70 151 43 C178 19 205 6 238 -6 C259 -16 280 -21 303 -22 C347 -22 394 -17 424 3 C443 13 464 22 481 35 C539 78 580 118 618 167 C638 196 646 230 646 262 C645 290 636 301 622 314 C600 336 574 337 541 339 C527 340 513 340 499 340 C443 340 389 334 336 319 C309 313 266 305 257 272 C248 237 294 222 320 224 C384 227 447 239 510 239 C514 239 536 239 540 238 C525 198 490 164 459 140 C428 115 384 79 345 75 C309 71 291 78 254 91 C222 102 203 123 179 145 C151 173 131 237 131 275 C131 292 134 308 141 325 C151 359 182 394 212 410 C247 427 280 441 316 453 C338 460 364 463 389 463 C403 463 417 462 430 460 C448 459 461 444 477 433 C488 427 504 416 517 422 C536 429 543 446 543 464 C543 478 539 493 531 504 C518 522 470 554 450 556 C430 561 411 565 390 565 L390 565 Z " />
<glyph glyph-name="H" unicode="H" horiz-adv-x="568" d="M512 434 C512 449 512 515 506 529 C502 537 500 543 495 552 C490 560 478 566 468 568 C450 569 428 560 420 546 C405 522 418 490 418 464 C416 430 420 396 422 352 C391 349 299 347 268 340 C234 334 182 330 151 316 C154 352 156 372 154 409 C151 436 147 463 142 490 C138 509 129 525 111 537 C91 550 74 541 63 524 C53 508 53 493 56 476 C59 453 61 431 61 411 C61 380 58 352 59 317 C61 259 56 200 54 144 C53 118 58 72 66 48 C71 32 76 10 91 -1 C102 -12 123 -14 136 -5 C149 3 149 30 149 44 C149 63 150 83 149 102 C149 142 149 182 149 225 C195 241 318 248 369 251 C381 252 396 250 410 251 C409 241 407 219 409 208 C410 186 410 175 410 154 C409 117 407 80 407 40 C407 14 411 -14 432 -22 C482 -39 498 21 497 54 C497 71 495 88 495 103 C495 136 497 167 500 199 C508 268 513 326 513 392 C513 406 512 420 512 434 L512 434 Z " />
<glyph glyph-name="I" unicode="I" horiz-adv-x="467" d="M428 47 C425 59 416 71 402 78 C390 84 376 85 362 85 C337 85 312 81 283 78 C272 94 273 149 273 172 C273 209 268 246 268 284 C268 325 270 363 274 403 C274 415 278 447 278 447 C278 447 278 447 299 450 C334 456 374 449 406 467 C420 475 424 493 421 508 C419 525 406 537 392 544 C380 551 366 553 353 553 C330 553 305 547 283 543 C211 534 233 534 159 534 C140 534 80 534 63 520 C52 509 49 487 50 475 C52 459 65 450 78 444 C90 436 103 434 116 434 C120 434 182 436 182 436 C182 436 181 390 181 359 C181 319 181 279 181 238 C181 198 184 159 185 119 C186 106 189 87 194 70 C166 68 141 68 109 71 C97 71 84 67 72 63 C56 57 49 43 44 27 C41 14 49 1 56 -10 C77 -39 157 -27 189 -22 C231 -17 390 -28 420 5 C428 13 429 36 428 47 L428 47 Z " />
<glyph glyph-name="J" unicode="J" horiz-adv-x="428" d="M408 520 C409 535 405 548 388 555 C359 568 316 556 284 553 C268 552 251 552 236 551 C220 549 162 543 146 543 C127 543 96 548 83 529 C77 518 70 504 68 493 C65 480 77 468 86 459 C97 446 118 451 135 453 C152 453 210 455 227 456 C231 426 237 389 234 356 C233 335 233 314 233 295 C233 274 233 255 233 235 C232 213 229 181 229 160 C229 90 211 52 130 57 C101 58 59 85 39 54 C31 43 25 14 31 0 C37 -13 56 -22 68 -27 C90 -38 119 -43 148 -43 C162 -43 176 -41 188 -39 C207 -35 224 -25 240 -12 C254 1 269 13 281 28 C302 56 312 92 313 125 C315 165 325 202 325 242 C325 283 321 322 321 362 C321 394 317 434 313 465 C324 467 343 468 355 471 C369 473 390 473 399 486 C406 498 408 507 408 520 L408 520 Z " />
<glyph glyph-name="K" unicode="K" horiz-adv-x="526" d="M493 503 C498 513 503 533 500 543 C494 556 480 560 466 564 C414 578 338 484 302 453 C259 415 214 370 147 309 C147 335 153 376 154 400 C156 420 157 449 161 468 C163 486 172 507 170 525 C167 548 149 559 131 559 C118 559 105 553 96 543 C81 526 72 500 68 477 C62 445 59 414 59 380 C57 319 57 260 57 199 C57 138 57 79 61 19 C62 -3 69 -13 88 -19 C106 -26 121 -18 134 -3 C143 10 147 21 150 37 C159 67 150 109 150 164 C150 171 147 186 206 238 C211 243 219 250 227 257 C244 239 259 221 275 202 C295 176 306 151 324 123 C342 95 356 66 373 37 C381 26 394 8 410 6 C426 5 444 14 452 26 C471 50 448 100 436 124 C421 157 402 185 383 219 C360 256 335 300 299 328 C340 371 394 410 436 445 C456 460 483 481 493 503 L493 503 Z " />
<glyph glyph-name="L" unicode="L" horiz-adv-x="507" d="M70 356 C70 336 67 318 65 299 C53 240 52 165 52 105 C52 89 52 72 54 57 C57 36 66 16 89 5 C119 -10 162 -10 193 -6 C264 4 299 25 379 19 C427 20 469 23 476 74 C482 116 416 110 389 111 C348 114 310 110 273 103 C242 98 235 96 185 89 C175 88 160 85 144 88 C145 100 145 112 145 125 C145 138 145 153 145 164 C147 204 149 243 154 283 C158 317 155 352 159 385 C163 418 159 451 155 484 C153 511 134 557 98 551 C81 548 69 537 65 522 C57 502 70 388 70 356 L70 356 Z " />
<glyph glyph-name="M" unicode="M" horiz-adv-x="791" d="M715 6 C737 5 750 34 747 70 C743 98 739 125 734 155 C723 219 709 281 704 345 C701 378 704 410 704 442 C703 467 699 497 679 515 C665 528 652 533 640 533 C608 533 584 494 565 467 C537 427 512 383 484 341 C457 300 439 255 409 215 C399 202 382 180 372 166 C361 193 347 221 335 247 C324 273 298 331 287 357 C264 414 260 436 227 490 C216 507 187 539 167 546 C123 562 96 508 86 475 C72 431 74 396 73 379 C70 350 65 291 64 262 C62 233 57 206 56 177 C55 147 53 118 55 88 C56 66 59 22 73 5 C92 -16 117 -5 131 14 C145 35 145 66 147 92 C149 167 149 309 178 378 C193 331 223 273 231 259 C241 237 253 208 265 178 C277 154 287 128 299 102 C308 79 320 45 335 25 C351 1 356 -6 383 0 C413 9 422 36 432 61 C450 106 475 151 501 193 C529 241 564 313 604 353 C625 300 620 154 647 84 C659 52 675 9 715 6 L715 6 Z " />
<glyph glyph-name="N" unicode="N" horiz-adv-x="587" d="M62 283 C62 262 65 243 66 221 C66 157 66 108 61 61 C58 32 65 -8 98 -14 C152 -21 146 64 149 93 C149 158 149 204 149 250 C149 283 144 317 145 350 C145 356 146 359 146 363 C174 340 201 318 223 290 C262 233 316 175 360 120 C389 80 424 42 445 3 C453 -12 470 -19 485 -17 C524 -7 525 23 525 56 C523 93 521 132 521 171 C521 236 522 304 526 369 C528 384 528 400 530 416 C533 433 535 453 538 469 C545 504 535 544 520 551 C503 557 485 565 470 556 C458 548 454 541 449 528 C442 513 442 491 442 475 C441 455 440 436 440 415 C440 379 438 345 435 310 C430 272 426 232 426 195 C401 226 388 237 369 260 C316 328 262 383 213 440 C199 456 184 473 144 499 C120 515 86 527 65 506 C49 489 48 464 51 442 C56 389 62 335 62 283 L62 283 Z " />
<glyph glyph-name="O" unicode="O" horiz-adv-x="678" d="M636 299 C630 331 626 369 610 400 C601 419 590 438 577 454 C559 477 539 498 521 520 C508 535 493 552 475 559 C450 568 420 571 396 574 C367 574 337 568 312 561 C259 548 209 524 167 490 C132 463 105 428 87 385 C71 349 50 313 43 274 C37 253 35 231 35 209 C35 190 37 172 41 153 C48 129 58 105 69 83 C80 57 102 45 123 28 C153 7 217 -25 248 -28 C264 -30 278 -31 294 -31 C325 -31 356 -27 384 -21 C405 -17 429 -10 447 -3 C472 9 491 26 512 41 C558 74 588 112 614 160 C635 199 644 251 636 299 L636 299 Z M513 189 C462 119 383 70 292 70 C275 70 259 71 241 75 C221 80 200 92 182 101 C167 109 150 119 140 134 C127 153 122 176 122 198 C122 216 124 235 129 251 C142 294 163 322 191 354 C219 384 248 416 283 438 C316 460 366 464 406 460 C425 458 445 449 463 438 C500 419 531 378 544 335 C550 318 552 299 553 281 C555 244 533 216 513 189 L513 189 Z " />
<glyph glyph-name="P" unicode="P" horiz-adv-x="464" d="M434 369 C440 387 441 401 438 420 C433 458 420 500 385 525 C353 548 322 555 288 560 C250 565 219 555 181 550 C150 545 116 536 89 522 C69 515 47 506 43 480 C41 460 44 440 48 419 C57 367 61 319 61 270 C61 233 67 160 67 122 C67 88 66 41 85 6 C97 -13 119 -21 134 -18 C154 -16 159 9 159 27 C160 70 144 140 146 208 C182 209 212 207 247 213 C278 218 309 230 335 246 C402 290 434 369 434 369 L434 369 Z M323 358 C308 339 247 305 215 300 C187 295 145 295 145 295 C141 331 134 437 134 437 C134 437 196 442 264 466 C283 473 353 464 356 434 C358 396 340 379 323 358 L323 358 Z " />
<glyph glyph-name="Q" unicode="Q" horiz-adv-x="691" d="M579 110 C589 122 598 136 607 147 C619 164 626 185 634 203 C642 220 643 239 647 257 C651 274 654 292 654 312 C654 362 636 407 620 449 C613 464 602 481 589 494 C581 502 572 507 564 517 C558 526 550 530 538 537 C519 547 496 552 474 559 C457 562 438 565 418 565 C400 566 382 561 366 564 C326 569 285 556 249 541 C229 533 211 520 192 509 C171 499 148 482 132 466 C101 431 77 394 63 350 C50 314 43 279 42 241 C41 219 39 195 48 175 C59 153 70 128 85 107 C98 91 112 75 129 62 C143 50 161 41 178 31 C196 21 214 16 233 9 C254 1 276 -3 298 -4 C315 -5 333 -4 351 -4 C370 -4 390 -5 409 0 C431 5 452 9 473 19 C485 25 497 32 509 40 C514 36 518 32 523 28 C537 17 553 5 568 -4 C580 -10 590 -21 604 -22 C616 -23 632 -23 642 -16 C656 -6 651 17 647 30 C637 66 608 89 579 110 L579 110 Z M545 241 C536 222 528 202 516 185 C514 182 511 178 509 175 C496 187 475 204 467 212 C454 225 443 242 429 255 C419 264 400 277 386 277 C374 275 360 269 350 262 C319 243 359 197 376 177 C383 168 392 158 399 149 C407 141 429 123 441 110 C426 102 401 92 386 87 C368 81 335 88 317 89 C299 92 280 91 263 96 C248 100 232 107 216 112 C184 124 158 151 143 182 C129 212 125 255 131 287 C139 321 166 352 189 376 C213 401 233 422 262 440 C279 449 298 454 317 460 C333 466 351 471 368 472 C400 476 432 462 465 458 C480 456 504 462 518 453 C528 445 536 429 542 419 C558 394 564 363 564 334 C564 300 558 267 545 241 L545 241 Z " />
<glyph glyph-name="R" unicode="R" horiz-adv-x="555" d="M527 61 C522 78 495 96 468 114 C424 143 377 182 337 204 C332 207 309 224 305 226 C326 238 345 250 362 261 C402 286 407 294 428 319 C468 372 465 406 461 444 C459 464 446 491 433 508 C415 529 407 530 382 542 C353 556 320 560 288 564 C270 565 249 565 230 564 C206 561 186 555 163 551 C128 544 86 546 64 517 C49 499 51 472 51 447 C51 366 57 289 50 209 C48 162 45 117 49 70 C50 59 51 49 53 39 C56 19 60 -4 78 -14 C95 -25 116 -25 129 -10 C142 5 147 21 144 40 C143 57 137 72 137 91 C137 127 139 157 151 185 C151 185 177 187 177 187 C257 185 418 -10 509 23 C526 28 532 44 527 61 L527 61 Z M140 446 C141 457 206 472 217 473 C244 476 270 480 297 477 C318 475 332 468 350 459 C362 453 382 427 380 411 C358 333 214 273 145 282 C145 282 131 366 140 446 L140 446 Z " />
<glyph glyph-name="S" unicode="S" horiz-adv-x="562" d="M264 -27 C376 -27 533 47 533 184 C533 275 419 306 353 310 C352 310 180 315 180 365 C180 407 272 472 339 482 C361 482 380 420 433 420 C453 420 464 438 464 460 C464 539 377 570 341 570 C301 570 262 554 225 537 C143 496 92 433 87 337 C96 258 218 228 274 224 C299 221 434 213 434 187 C434 108 315 68 246 68 C202 68 123 74 92 115 C81 129 69 134 54 134 C38 134 26 127 26 107 C26 1 176 -27 264 -27 L264 -27 Z " />
<glyph glyph-name="T" unicode="T" horiz-adv-x="506" d="M481 503 C486 528 455 550 434 553 C405 561 376 555 346 551 C272 546 198 539 120 531 C106 530 93 530 79 529 C66 529 52 529 40 524 C27 519 22 506 22 491 C22 477 27 462 37 453 C49 442 63 440 78 440 C90 440 105 442 118 442 C141 442 163 447 187 449 C183 399 187 346 190 272 C191 239 189 133 190 101 C191 83 194 67 196 49 C199 35 200 21 207 8 C213 -4 224 -13 237 -14 C247 -14 264 -4 270 4 C290 26 287 62 284 88 C281 118 275 145 275 176 C275 207 270 259 271 290 C273 318 278 400 278 429 C278 438 279 449 282 460 C314 460 347 462 381 464 C394 464 409 463 421 463 C450 463 475 476 481 503 L481 503 Z " />
<glyph glyph-name="U" unicode="U" horiz-adv-x="579" d="M56 241 C61 193 63 80 96 41 C128 1 141 -8 194 -19 C238 -31 338 -6 379 10 C421 27 482 39 491 94 C497 142 507 193 507 242 C507 296 519 349 523 405 C524 429 528 453 532 477 C537 506 542 524 520 548 C506 564 475 573 460 555 C447 541 440 511 436 491 C426 440 425 381 425 326 C423 273 419 217 413 167 C410 136 375 114 348 106 C320 98 294 94 266 91 C209 81 166 128 156 176 C149 212 147 253 147 292 C147 308 147 325 148 339 C150 374 156 412 156 450 C156 464 156 478 153 493 C150 512 126 535 105 541 C75 551 66 517 64 497 C59 455 59 414 57 372 C56 343 55 312 55 282 C55 268 55 255 56 241 L56 241 Z " />
<glyph glyph-name="V" unicode="V" horiz-adv-x="483" d="M92 308 C105 272 145 172 158 137 C177 97 174 48 200 13 C209 1 220 -3 233 -8 C245 -13 257 -13 268 -6 C277 0 282 16 286 26 C295 54 304 79 311 105 C353 225 391 341 431 456 C436 469 444 481 447 495 C449 509 443 522 434 534 C414 557 388 566 369 537 C353 511 342 477 333 447 C312 385 267 252 245 190 C242 182 240 176 236 169 C229 184 227 197 222 212 C218 225 191 305 184 317 C171 347 149 415 134 444 C118 469 112 486 90 503 C64 521 30 485 37 458 C43 410 75 356 92 308 L92 308 Z " />
<glyph glyph-name="W" unicode="W" horiz-adv-x="726" d="M676 381 C687 416 698 456 693 495 C692 512 679 533 661 537 C639 542 631 520 625 504 C595 437 573 365 555 294 C545 259 533 211 517 173 C506 189 497 235 490 253 C480 295 471 335 463 376 C458 396 454 412 448 433 C441 454 432 476 422 494 C414 507 405 528 391 534 C348 555 331 487 320 462 C304 425 294 385 277 350 C248 292 231 230 202 175 C180 221 166 294 154 344 C144 383 138 424 132 467 C127 497 75 543 45 511 C36 502 34 489 34 475 C34 447 44 416 51 396 C65 350 76 274 93 229 C108 189 119 149 133 110 C145 81 157 34 186 17 C202 8 221 0 235 13 C248 26 256 44 261 61 C273 94 288 143 296 175 C305 212 325 252 341 287 C353 310 367 332 382 356 C397 256 401 181 438 110 C455 75 468 32 503 12 C519 3 535 3 550 16 C560 27 565 43 570 58 C603 167 645 273 676 381 L676 381 Z " />
<glyph glyph-name="X" unicode="X" horiz-adv-x="500" d="M309 284 C324 303 335 325 350 346 C377 384 406 421 437 455 C452 472 467 496 467 518 C467 532 464 541 447 551 C429 562 426 568 400 553 C393 550 380 539 375 533 C355 513 333 481 315 459 C287 425 269 385 237 347 C206 385 182 411 153 451 C140 471 134 491 117 508 C99 525 81 538 58 521 C40 508 25 485 36 464 C41 454 47 441 55 432 C76 408 99 384 121 356 C147 322 169 300 191 264 C151 198 109 133 77 62 C68 43 69 16 85 -4 C100 -25 117 -16 134 0 C149 14 165 33 175 50 C190 73 194 87 202 107 C214 135 231 161 247 188 C262 172 280 146 292 128 C306 107 316 83 331 62 C341 45 349 22 363 9 C382 -8 409 1 418 22 C429 43 418 67 409 87 C394 124 372 160 347 195 C333 219 314 247 299 271 C302 275 306 280 309 284 L309 284 Z " />
<glyph glyph-name="Y" unicode="Y" horiz-adv-x="539" d="M524 537 C524 562 501 565 479 564 C444 560 432 528 416 502 C395 471 375 430 357 397 C339 363 336 356 319 322 C310 328 302 336 294 342 C266 366 230 390 207 419 C175 456 127 496 85 522 C66 532 51 539 35 526 C20 513 18 495 23 474 C32 442 50 424 76 404 C109 380 131 358 161 333 C188 313 212 288 238 266 C251 256 261 247 278 234 C272 222 254 182 249 171 C231 140 216 108 197 72 C188 57 180 41 178 23 C175 0 184 -9 204 -17 C245 -34 263 13 285 41 C311 76 326 116 347 154 C361 181 374 207 387 234 C400 262 410 291 423 319 C449 376 483 429 510 484 C519 500 524 519 524 537 L524 537 Z " />
<glyph glyph-name="Z" unicode="Z" horiz-adv-x="519" d="M166 531 C119 526 66 528 58 467 C57 450 75 429 88 422 C110 410 126 422 146 429 C179 440 211 442 245 447 C274 451 305 455 336 453 C326 442 317 429 308 418 C296 398 282 380 268 362 C248 340 233 314 213 292 C162 231 106 173 52 115 C39 102 34 84 34 67 C34 39 49 9 79 0 C102 -8 133 5 158 6 C189 8 221 8 252 12 C294 16 530 21 481 118 C472 134 455 136 436 131 C416 124 400 118 379 115 C349 111 320 110 290 106 C251 100 216 102 170 98 C203 150 254 207 292 256 C332 304 371 353 407 402 C429 431 457 478 440 513 C427 541 404 546 379 546 C366 546 352 544 338 544 C300 544 263 543 226 538 C206 535 185 534 166 531 L166 531 Z " />
<glyph glyph-name="bracketleft" unicode="&#x5b;" horiz-adv-x="350" d="M54 273 C58 200 53 44 63 -27 C67 -58 79 -78 109 -89 C141 -101 177 -101 211 -101 C255 -100 313 -98 313 -39 C312 -9 291 -4 264 -6 C238 -9 234 -14 208 -14 C190 -14 158 -13 142 0 C129 9 134 56 134 74 C134 136 132 281 132 344 C132 367 132 392 132 415 C132 450 132 486 137 520 C168 537 190 539 213 539 C225 539 238 539 251 539 C262 539 275 539 291 542 C321 547 322 573 314 599 C306 628 282 634 255 640 C237 644 222 645 209 645 C184 645 163 639 128 632 C105 628 79 618 67 596 C55 575 58 551 58 528 C59 502 57 476 57 450 C55 407 53 366 53 325 C53 308 53 290 54 273 L54 273 Z " />
<glyph glyph-name="backslash" unicode="&#x5c;" horiz-adv-x="408" d="M176 235 C197 184 223 134 244 81 C253 58 266 36 276 13 C285 -5 290 -26 303 -41 C313 -56 330 -67 348 -62 C364 -58 378 -44 379 -26 C382 -8 365 8 357 23 C350 41 342 61 331 80 C306 129 287 182 267 234 C242 294 156 480 131 539 C125 556 116 575 103 587 C90 597 62 604 50 597 C35 591 30 570 30 556 C29 541 38 525 47 512 C56 499 64 485 72 469 C88 434 162 272 176 235 L176 235 Z " />
<glyph glyph-name="bracketright" unicode="&#x5d;" horiz-adv-x="340" d="M290 219 C292 248 295 278 295 308 C295 323 295 339 292 354 C284 424 297 562 261 627 C248 650 224 648 198 647 C172 645 147 643 122 640 C103 639 81 636 65 626 C47 614 44 597 45 577 C47 560 54 542 72 541 C92 538 115 544 134 548 C154 550 172 551 191 550 C213 550 211 513 213 498 C216 480 216 456 216 432 C216 370 211 294 209 250 C207 186 202 76 195 14 C194 0 193 3 181 0 C168 -4 159 -5 146 -6 C125 -8 105 -10 85 -18 C66 -26 56 -37 53 -58 C49 -80 61 -93 80 -100 C100 -106 120 -101 140 -98 C166 -96 193 -98 217 -94 C235 -92 253 -91 263 -71 C270 -53 269 -27 270 -6 C277 53 283 158 290 219 L290 219 Z " />
<glyph glyph-name="asciicircum" unicode="&#x5e;" horiz-adv-x="409" d="M90 405 C77 385 59 366 50 345 C44 330 32 313 35 296 C36 283 38 273 51 266 C69 256 90 262 106 275 C120 286 122 304 131 319 C144 343 165 367 182 389 C196 407 217 434 239 445 C248 428 256 409 262 391 C269 366 277 299 296 283 C309 272 336 278 349 287 C364 299 367 317 364 335 C356 378 341 424 322 464 C307 495 300 541 263 555 C222 572 182 520 159 494 C134 466 112 436 90 405 L90 405 Z " />
<glyph glyph-name="underscore" unicode="&#x5f;" horiz-adv-x="468" d="M67 -21 C105 -24 254 -10 290 -7 C328 -6 367 -8 402 4 C428 14 459 40 447 75 C439 97 424 108 404 103 C356 91 191 83 142 78 C115 74 89 77 63 73 C46 70 34 70 27 50 C13 7 39 -18 67 -21 L67 -21 Z " />
<glyph glyph-name="grave" unicode="&#x60;" horiz-adv-x="287" d="M83 678 C111 665 166 649 193 636 C211 628 237 623 250 639 C255 645 259 656 252 663 C245 674 230 683 219 689 C185 709 124 733 85 736 C74 737 53 740 44 732 C36 725 34 718 40 710 C51 694 67 685 83 678 L83 678 Z " />
<glyph glyph-name="a" unicode="a" horiz-adv-x="536" d="M504 92 C495 147 482 208 462 260 C437 321 418 378 396 438 C381 479 362 527 327 548 C309 560 292 557 273 548 C251 538 241 529 224 508 C200 481 195 451 180 419 C160 381 146 348 129 309 C114 275 98 237 87 200 C74 160 53 124 44 85 C40 69 34 40 34 16 C34 -4 38 -19 52 -27 C96 -51 114 23 134 70 C142 89 153 109 159 127 C197 130 232 140 269 145 C299 149 327 153 358 155 C371 156 379 158 393 158 C397 145 401 131 403 116 C411 87 432 16 467 12 C508 6 512 53 504 92 L504 92 Z M325 242 C279 237 238 220 194 220 C198 229 203 244 206 253 C231 325 250 369 287 431 C294 419 294 419 300 407 C312 385 322 366 332 343 C342 320 358 274 367 247 C348 246 335 243 325 242 L325 242 Z " />
<glyph glyph-name="b" unicode="b" horiz-adv-x="533" d="M465 235 C447 256 386 278 361 287 C375 295 387 309 401 319 C414 328 427 344 434 359 C448 394 458 419 448 459 C440 489 404 522 375 533 C357 538 318 561 262 559 C218 556 193 546 157 535 C137 530 130 528 110 526 C93 526 78 520 68 506 C59 494 53 475 56 460 C64 411 63 349 61 299 C59 261 56 224 56 184 C56 146 52 110 48 75 C44 40 44 5 83 -9 C114 -22 153 -21 183 -21 C236 -21 302 -21 348 -3 C391 12 435 31 466 62 C483 78 500 89 502 147 C503 178 487 211 465 235 L465 235 Z M247 463 C317 469 368 431 368 431 C368 431 373 398 295 347 C219 295 149 303 149 303 C149 347 147 433 147 433 C161 438 178 455 247 463 L247 463 Z M316 81 C249 63 137 67 137 67 C139 75 145 203 145 203 C158 203 211 204 232 211 C272 225 381 195 412 164 C404 144 382 100 316 81 L316 81 Z " />
<glyph glyph-name="c" unicode="c" horiz-adv-x="581" d="M294 -33 C366 -33 548 7 548 89 C548 107 533 122 510 122 C484 122 461 102 439 92 C397 73 344 63 289 63 C181 63 130 130 130 223 C130 278 159 351 210 397 C287 453 355 460 387 469 C425 456 431 403 483 403 C507 403 516 422 516 440 C516 518 416 560 361 560 C347 560 332 558 315 552 C264 536 225 515 183 484 C125 435 67 366 52 295 C44 261 39 223 39 191 C42 55 156 -33 294 -33 L294 -33 Z " />
<glyph glyph-name="d" unicode="d" horiz-adv-x="543" d="M504 334 C497 369 483 410 465 437 C430 483 376 533 320 539 C301 543 268 546 236 546 C204 546 170 543 151 538 C124 529 74 526 56 503 C45 486 49 467 50 449 C51 425 51 401 55 376 C60 328 68 281 68 231 C68 191 75 128 73 88 C73 71 69 53 69 35 C69 12 76 -10 103 -17 C121 -22 139 -18 157 -13 C243 9 298 39 372 81 C428 116 467 165 488 220 C495 238 500 259 504 278 C506 296 506 316 504 334 L504 334 Z M356 186 C283 107 155 83 155 83 C155 83 146 186 148 243 C151 300 138 449 138 449 C152 453 208 455 252 455 C318 455 409 422 420 366 C431 294 404 238 356 186 L356 186 Z " />
<glyph glyph-name="e" unicode="e" horiz-adv-x="503" d="M466 71 C472 94 453 100 445 102 C438 105 429 107 412 105 C347 96 279 89 206 89 C180 89 163 90 139 93 C136 123 148 159 149 189 C160 190 169 193 178 194 C219 203 251 213 293 213 C316 215 325 215 347 216 C369 217 413 221 432 231 C447 239 453 251 454 269 C454 286 429 296 414 297 C392 300 373 300 355 300 C333 300 312 300 285 299 C255 299 220 296 191 292 C180 291 165 290 153 288 C153 299 153 314 153 331 C153 362 156 392 156 438 C182 438 205 438 226 437 C251 436 268 438 294 438 C320 440 335 438 363 441 C382 442 413 445 432 454 C445 460 456 472 454 490 C453 504 430 521 418 524 C403 528 386 528 361 529 C337 530 325 528 301 528 C250 526 198 529 148 531 C136 531 112 535 103 528 C88 516 78 499 76 477 C74 455 72 423 72 400 C72 372 70 316 69 288 C66 231 54 175 50 116 C48 103 47 88 47 72 C47 48 51 23 68 9 C83 -3 103 -6 119 -6 C147 -6 158 -6 175 -5 C248 -1 322 6 401 22 C434 31 457 32 466 71 L466 71 Z " />
<glyph glyph-name="f" unicode="f" horiz-adv-x="464" d="M422 463 C437 472 440 487 436 506 C434 520 427 528 413 531 C349 544 222 530 162 530 C145 529 128 526 112 526 C96 526 79 534 66 525 C53 517 46 507 46 491 C46 455 53 423 52 387 C51 369 51 350 51 332 C52 314 56 295 57 277 C59 239 59 141 59 103 C59 70 59 23 83 0 C93 -12 106 -21 122 -12 C134 -4 141 17 144 30 C148 65 140 111 140 147 C140 167 137 167 136 197 C164 204 199 201 247 201 C290 202 439 203 405 267 C399 279 393 295 374 297 C359 299 342 296 325 295 C284 295 179 291 135 291 C137 330 143 392 141 432 C209 444 316 432 382 447 C396 450 410 456 422 463 L422 463 Z " />
<glyph glyph-name="g" unicode="g" horiz-adv-x="686" d="M645 206 C654 252 645 323 580 323 C535 323 490 327 434 321 C403 317 359 313 329 305 C305 300 295 296 276 282 C259 269 255 265 259 239 C264 217 290 211 321 211 C346 211 372 215 394 220 C425 226 453 229 480 229 C505 229 528 226 550 226 C547 174 516 121 467 96 C422 70 376 66 323 62 C293 61 263 65 239 80 C217 93 188 112 170 132 C137 168 123 224 139 272 C156 319 211 385 253 410 C275 423 306 434 338 445 C338 445 338 445 339 445 C383 459 438 482 479 441 C493 428 502 418 523 414 C544 410 573 415 576 433 C579 445 585 459 575 482 C555 524 533 531 493 547 C424 571 315 551 249 515 C198 492 156 456 118 412 C104 394 89 375 77 354 C47 303 32 253 41 191 C50 138 89 88 125 53 C165 16 218 -13 268 -23 C295 -30 329 -31 358 -31 C386 -31 412 -25 439 -19 C466 -13 489 1 515 14 C539 27 558 49 577 70 C610 105 636 156 645 206 L645 206 Z " />
<glyph glyph-name="h" unicode="h" horiz-adv-x="533" d="M476 318 C479 376 484 434 484 495 C484 513 480 530 467 543 C453 556 440 560 429 560 C409 560 394 541 393 517 C388 469 389 420 385 371 C384 357 384 334 384 319 C347 319 292 316 255 313 C223 313 191 309 157 305 C157 319 157 341 158 354 C159 372 163 391 167 407 C171 425 175 446 175 467 C175 482 172 499 163 512 C153 528 136 538 120 538 C105 538 91 528 85 506 C75 460 65 415 60 369 C56 318 56 259 56 208 C56 163 60 119 63 75 C65 54 69 34 72 13 C76 -3 80 -19 97 -30 C116 -40 138 -35 145 -14 C150 1 153 18 155 35 C162 89 155 146 150 202 C162 203 173 206 184 206 C242 209 298 222 361 222 C369 222 378 221 387 221 C387 177 383 134 384 87 C385 59 396 17 418 -3 C429 -13 457 -13 467 1 C476 16 473 41 473 59 C473 84 472 119 472 150 C472 205 475 260 476 318 L476 318 Z " />
<glyph glyph-name="i" unicode="i" horiz-adv-x="195" d="M61 392 C59 357 58 323 57 288 C53 233 49 178 49 122 C49 83 48 49 63 14 C72 -8 89 -21 109 -9 C133 5 140 36 140 69 C140 94 136 120 134 141 C133 166 131 191 132 216 C133 246 136 275 137 305 C138 352 141 398 144 444 C145 460 149 480 145 497 C142 507 134 529 127 535 C118 544 98 537 89 530 C57 507 61 432 61 392 L61 392 Z " />
<glyph glyph-name="j" unicode="j" horiz-adv-x="418" d="M386 481 C399 490 396 516 391 530 C384 553 353 561 316 561 C280 561 239 553 214 548 C196 544 124 538 106 535 C91 533 75 534 62 526 C47 519 41 502 41 485 C45 448 85 446 116 446 C146 446 179 448 212 453 C213 387 226 295 226 226 C226 183 237 90 178 78 C144 75 124 79 91 83 C73 84 59 84 45 71 C16 35 53 1 91 -10 C109 -15 144 -19 164 -17 C215 -14 267 2 294 54 C310 84 319 122 320 154 C321 172 319 189 318 206 C309 281 298 339 298 423 C298 438 298 454 298 469 C320 473 368 470 386 481 L386 481 Z " />
<glyph glyph-name="k" unicode="k" horiz-adv-x="549" d="M307 314 C322 328 335 339 348 349 C385 379 422 411 457 446 C467 456 481 464 492 475 C513 495 523 528 505 551 C485 577 444 548 425 535 C410 525 397 513 385 502 C372 491 361 481 348 471 C281 419 221 357 149 310 C149 314 149 319 149 325 C149 344 149 359 150 383 C152 401 150 422 149 440 C148 466 130 494 128 495 C110 516 85 528 61 502 C52 491 50 478 50 464 C50 447 53 431 55 418 C56 385 63 354 59 322 C56 301 55 283 55 266 C55 242 57 222 56 208 C55 171 56 133 53 97 C52 79 51 58 51 39 C51 22 52 6 57 -8 C64 -26 79 -35 95 -35 C106 -35 119 -30 128 -18 C145 4 141 47 144 79 C147 111 145 144 147 185 C162 195 175 207 188 220 C200 230 206 233 230 250 C256 203 288 154 319 107 C345 70 369 18 413 -13 C423 -21 436 -25 449 -25 C466 -25 481 -17 484 1 C491 36 467 56 450 84 C436 109 403 158 386 182 C368 209 351 235 334 264 C325 279 317 297 307 314 L307 314 Z " />
<glyph glyph-name="l" unicode="l" horiz-adv-x="467" d="M65 344 C66 278 57 210 57 144 C57 111 57 80 57 48 C57 6 82 -10 110 -8 C197 -3 323 -6 413 28 C440 48 434 80 409 98 C396 106 376 107 361 107 C344 106 283 89 266 87 C226 81 178 72 140 83 C138 98 135 112 137 129 C140 185 148 234 146 290 C146 335 155 366 155 398 C155 428 164 463 154 491 C147 511 125 541 102 534 C92 531 78 521 75 511 C71 499 71 486 71 473 C71 431 67 383 65 344 L65 344 Z " />
<glyph glyph-name="m" unicode="m" horiz-adv-x="729" d="M76 296 C69 230 51 173 52 106 C54 67 60 -16 102 -17 C129 -18 138 3 139 34 C140 66 143 97 147 129 C151 163 156 199 161 233 C165 264 175 323 174 356 C188 322 199 299 209 279 C237 224 258 163 283 103 C299 61 329 -35 378 -8 C418 16 434 85 455 132 C470 166 488 200 505 233 C521 262 540 294 554 325 C561 234 583 136 609 50 C616 28 638 -4 655 -6 C681 -9 689 30 689 56 C689 84 680 116 676 144 C671 177 665 212 662 246 C655 312 652 379 650 445 C649 477 649 506 629 529 C614 550 585 542 567 525 C549 508 536 477 522 454 C504 423 484 391 469 357 C439 294 408 230 369 173 C334 221 315 281 289 335 C263 392 244 454 215 509 C204 533 188 543 171 543 C144 543 116 519 103 484 C93 458 90 422 87 393 C85 361 80 328 76 296 L76 296 Z " />
<glyph glyph-name="n" unicode="n" horiz-adv-x="585" d="M67 345 C67 261 70 230 72 155 C73 125 69 98 71 69 C71 37 76 -10 115 -19 C156 -28 161 34 160 61 C159 110 160 155 157 206 C154 264 157 316 151 369 C172 345 194 309 209 287 C229 260 244 234 266 211 C289 184 306 153 329 125 C349 102 364 78 382 53 C407 17 417 -28 468 -25 C487 -23 494 0 496 18 C501 48 505 69 508 100 C514 182 518 260 527 343 C531 379 530 414 531 449 C532 472 531 493 523 515 C517 534 500 544 483 544 C469 544 455 537 450 520 C443 499 446 476 444 454 C436 353 430 254 420 160 C389 193 351 235 331 269 C302 317 270 360 239 402 C226 419 212 442 199 460 C187 475 178 490 166 503 C142 529 99 570 67 539 C50 524 45 509 45 493 C45 459 67 419 67 345 L67 345 Z " />
<glyph glyph-name="o" unicode="o" horiz-adv-x="673" d="M635 335 C630 354 624 374 618 393 C606 431 587 468 560 497 C535 520 500 541 471 541 C445 542 420 546 394 543 C376 541 362 547 345 550 C328 552 308 547 291 543 C236 533 148 481 116 440 C93 410 74 379 58 343 C43 308 35 277 39 238 C41 220 44 202 46 184 C49 166 56 145 61 127 C70 93 88 67 114 43 C125 31 138 18 154 12 C215 -23 254 -23 315 -23 C394 -23 476 1 534 59 C561 87 586 119 603 155 C624 200 632 235 637 277 C640 296 639 317 635 335 L635 335 Z M531 224 C512 175 447 107 402 92 C380 84 359 79 337 75 C303 70 269 72 234 80 C165 94 125 168 128 238 C136 304 165 329 204 374 C224 396 255 420 282 433 C299 440 318 444 336 449 C348 451 359 455 372 453 C385 450 397 445 410 442 C441 437 474 440 506 425 C561 401 549 261 531 224 L531 224 Z " />
<glyph glyph-name="p" unicode="p" horiz-adv-x="484" d="M449 437 C441 485 414 512 386 530 C352 552 299 556 260 561 C214 566 172 544 127 538 C108 535 90 530 77 515 C61 497 56 464 57 442 C57 414 55 385 56 357 C57 334 57 310 57 286 C56 250 56 216 56 180 C56 166 56 150 56 134 C57 92 59 40 71 1 C78 -14 82 -34 102 -36 C132 -39 136 -22 141 0 C151 36 147 70 145 105 C143 136 138 163 135 189 C159 190 189 195 214 197 C214 197 274 200 329 226 C355 242 387 260 406 284 C437 322 457 392 449 437 L449 437 Z M250 296 C202 284 143 284 143 284 C146 305 148 335 148 363 C148 405 145 442 145 442 C161 450 262 463 281 464 C302 466 366 449 364 414 C360 344 296 308 250 296 L250 296 Z " />
<glyph glyph-name="q" unicode="q" horiz-adv-x="699" d="M648 53 C641 63 612 89 588 110 C598 123 606 136 613 149 C622 166 628 184 633 204 C639 231 643 262 643 294 C643 313 642 332 638 350 C634 369 622 389 613 406 C604 423 598 442 586 459 C576 477 562 487 545 499 C509 524 467 539 426 548 C409 552 390 553 373 553 C333 553 294 548 259 534 C219 519 183 495 150 468 C119 441 97 400 79 361 C63 323 52 279 48 237 C47 222 46 208 46 193 C46 159 50 124 63 97 C77 61 112 17 145 1 C166 -8 184 -17 206 -21 C227 -23 249 -28 271 -28 C322 -28 374 -17 422 -3 C447 5 467 19 491 32 C498 37 507 43 515 47 C542 26 576 0 591 -9 C603 -16 624 -22 641 -22 C657 -22 672 -16 673 8 C674 23 657 41 648 53 L648 53 Z M366 87 C326 76 282 63 238 71 C218 75 194 79 174 89 C156 98 153 125 149 145 C144 171 140 197 140 222 C140 243 143 264 148 283 C153 304 165 321 174 339 C183 358 194 378 211 391 C245 416 284 440 324 454 C344 462 368 460 391 460 C413 460 431 460 452 445 C474 429 492 409 511 391 C527 371 555 352 562 331 C566 317 564 297 563 284 C559 239 541 202 515 172 C476 204 471 209 466 213 C452 224 438 234 423 243 C401 257 374 270 348 264 C324 256 315 234 321 211 C326 193 333 186 348 178 C365 169 381 164 396 154 C404 149 412 142 419 136 L441 115 C417 102 391 93 366 87 L366 87 Z " />
<glyph glyph-name="r" unicode="r" horiz-adv-x="553" d="M524 52 C515 71 488 98 460 116 C449 124 437 131 427 138 C396 159 348 176 316 203 C346 215 366 234 391 251 C433 282 476 336 476 401 C476 419 472 438 464 458 C446 505 343 547 299 547 C287 547 274 548 263 548 C221 548 164 539 128 525 C114 520 85 511 75 499 C67 489 60 478 58 464 C56 444 60 429 60 409 C58 327 70 295 65 247 C62 219 61 189 58 153 C56 129 48 89 45 65 C43 36 48 5 61 -10 C71 -22 91 -26 102 -19 C128 -7 132 47 135 71 C137 93 141 120 146 162 C158 163 168 163 184 159 C223 151 310 99 339 80 C362 65 385 50 410 37 C437 23 462 5 490 5 C529 4 534 28 524 52 L524 52 Z M238 454 C291 454 305 454 318 453 C429 438 389 383 389 383 C373 354 363 348 339 325 C294 280 212 251 153 251 C152 312 153 371 149 429 C168 431 217 454 238 454 L238 454 Z " />
<glyph glyph-name="s" unicode="s" horiz-adv-x="588" d="M458 25 C504 57 551 96 551 159 C551 177 547 197 538 211 C520 243 476 278 438 283 C376 296 312 285 248 288 C235 288 215 295 203 300 C193 305 162 317 164 327 C173 365 219 407 255 428 C268 435 346 472 358 463 C377 451 389 429 403 411 C411 401 422 396 435 396 C444 396 460 400 467 409 C478 427 476 463 468 482 C462 499 447 520 425 530 C408 539 386 549 365 553 C328 562 293 559 256 542 C219 527 188 504 155 476 C123 449 80 384 65 345 C51 307 82 265 107 238 C136 207 199 194 238 190 C305 188 383 194 454 181 C469 120 366 84 318 72 C283 64 244 62 202 62 C185 62 168 63 151 66 C128 74 116 93 94 105 C85 109 76 116 67 116 C54 118 38 112 35 103 C30 87 31 65 45 44 C54 32 70 12 83 5 C110 -15 135 -17 171 -25 C194 -30 217 -34 241 -34 C297 -34 411 -11 458 25 L458 25 Z " />
<glyph glyph-name="t" unicode="t" horiz-adv-x="534" d="M500 467 C507 482 507 507 493 519 C472 537 445 542 418 542 C393 542 369 538 348 538 C308 539 278 537 239 533 C204 528 6 536 34 463 C39 451 53 437 65 432 C85 423 107 424 125 429 C146 436 169 436 191 436 C209 436 218 437 235 437 C234 416 238 389 238 371 C239 336 241 301 241 268 C239 226 235 172 235 120 C235 93 237 66 239 43 C242 21 243 25 253 4 C259 -8 281 -18 294 -16 C306 -13 314 0 316 12 C317 34 318 56 318 78 C318 109 321 140 322 172 C323 209 323 248 325 286 C326 317 325 347 323 378 C322 401 327 424 328 447 C347 450 369 450 388 451 C412 454 436 451 460 450 C480 449 493 449 500 467 L500 467 Z " />
<glyph glyph-name="u" unicode="u" horiz-adv-x="546" d="M153 304 C153 335 156 361 157 391 C159 428 165 504 117 516 C69 526 56 468 63 432 C67 412 68 396 68 374 C68 347 64 318 63 290 C62 251 60 213 60 175 C60 156 60 138 62 118 C66 70 107 19 151 -3 C166 -10 184 -13 204 -13 C235 -13 267 -6 294 -1 C345 8 409 27 434 75 C448 100 460 118 465 145 C475 178 477 216 482 251 C492 321 497 393 504 463 C505 486 504 507 488 524 C474 539 451 546 434 530 C416 513 411 491 412 468 C412 442 415 416 412 391 C408 331 406 270 391 212 C382 173 372 128 331 109 C307 97 281 96 257 91 C245 88 230 87 216 87 C201 87 186 88 177 94 C147 112 157 144 153 177 C152 194 153 217 153 234 C153 273 153 291 153 304 L153 304 Z " />
<glyph glyph-name="v" unicode="v" horiz-adv-x="482" d="M41 402 C49 374 59 347 67 318 C84 259 105 195 132 140 C156 91 167 34 200 -9 C216 -30 234 -39 257 -30 C274 -25 284 -14 290 5 C295 26 296 49 301 71 C308 102 314 129 323 158 C344 216 365 273 385 330 C402 378 429 424 445 473 C451 495 456 515 445 535 C434 552 418 565 401 556 C366 535 352 477 336 440 C316 391 294 339 278 287 C269 262 260 238 251 213 C244 195 235 164 228 142 C215 167 195 209 185 235 C172 270 167 296 155 331 C147 357 142 381 138 409 C135 440 132 502 86 502 C62 502 50 487 37 468 C26 450 36 423 41 402 L41 402 Z " />
<glyph glyph-name="w" unicode="w" horiz-adv-x="723" d="M101 229 C107 191 116 155 120 115 C124 79 136 43 149 10 C157 -8 166 -14 182 -17 C199 -21 224 -21 232 -1 C243 30 252 66 266 100 C282 136 295 175 310 212 C326 241 341 269 352 296 C360 277 362 257 367 242 C378 203 389 167 403 131 C414 105 423 81 433 58 C440 37 446 7 469 1 C484 -4 499 -13 515 -6 C529 -1 535 21 542 35 C560 69 568 111 581 147 C596 186 609 225 622 264 C635 301 650 337 663 374 C674 407 688 440 693 475 C700 526 670 543 641 544 C609 546 599 484 590 460 C577 424 572 388 559 352 C546 317 533 279 519 243 C508 219 499 190 489 167 C479 208 464 244 455 282 C440 334 425 382 414 432 C409 449 405 466 392 478 C383 487 362 504 349 500 C336 497 323 467 317 454 C300 422 288 385 273 352 C250 303 218 255 202 202 C182 242 181 290 168 331 C162 359 152 384 144 410 C135 442 122 477 91 493 C76 499 60 495 49 485 C34 472 38 455 41 438 C47 419 53 398 61 379 C82 332 90 278 101 229 L101 229 Z " />
<glyph glyph-name="x" unicode="x" horiz-adv-x="526" d="M475 -6 C488 3 492 16 492 28 C492 47 483 66 477 81 C468 101 452 124 439 141 C408 188 362 218 331 266 C343 293 361 318 378 344 C400 375 418 409 433 444 C439 458 448 481 448 500 C448 519 440 534 413 537 C371 542 356 490 341 464 C323 434 310 403 293 374 C287 362 281 352 275 341 C236 380 196 423 159 472 C144 490 131 511 111 524 C96 533 81 543 64 543 C42 543 37 524 34 507 C33 493 40 473 50 460 C64 442 78 423 94 406 C131 369 166 327 201 288 C209 279 215 270 223 261 C195 219 168 176 135 137 C121 118 104 100 87 81 C77 70 64 54 59 39 C49 12 64 -32 104 -13 C139 4 161 36 186 65 C209 92 230 119 249 147 C259 162 271 175 283 189 C290 178 298 167 307 156 C341 116 368 75 400 28 C416 6 440 -31 475 -6 L475 -6 Z " />
<glyph glyph-name="y" unicode="y" horiz-adv-x="530" d="M468 436 C484 463 512 495 498 528 C491 544 480 552 459 551 C438 551 432 539 420 526 C394 499 384 462 363 431 C335 389 313 343 290 295 C271 304 226 352 207 371 C186 394 149 449 129 475 C107 505 83 527 44 511 C17 495 34 433 54 410 C76 385 114 345 133 319 C165 275 210 242 251 204 C241 185 238 172 230 154 C224 138 213 127 206 112 C189 84 175 52 171 21 C168 1 172 -6 189 -18 C203 -27 216 -28 230 -18 C250 -5 275 26 287 53 C295 70 304 93 312 111 C324 147 346 198 363 235 C372 256 384 277 393 297 C403 321 415 341 425 363 C438 388 456 411 468 436 L468 436 Z " />
<glyph glyph-name="z" unicode="z" horiz-adv-x="490" d="M252 537 C219 535 184 533 149 533 C125 534 97 529 80 511 C67 495 58 473 66 454 C71 441 87 437 105 437 C133 437 161 445 203 445 C216 445 229 445 243 445 C272 447 303 440 334 444 C311 394 280 342 244 301 C217 270 193 238 167 207 C142 177 123 142 98 112 C81 92 61 70 57 43 C46 -4 87 -15 120 -13 C142 -12 164 -10 186 -9 C244 -6 337 -6 394 6 C411 10 429 12 442 26 C451 35 466 56 462 69 C458 84 438 96 424 98 C406 101 388 94 370 94 C322 92 238 85 190 88 C216 124 242 164 273 197 C294 220 312 243 331 268 C352 295 367 323 387 350 C412 388 433 433 438 478 C442 520 396 542 359 542 C325 542 288 538 252 537 L252 537 Z " />
<glyph glyph-name="braceleft" unicode="&#x7b;" horiz-adv-x="435" d="M383 447 C387 460 387 475 385 487 C377 519 346 520 321 525 C299 530 279 535 257 537 C242 539 226 542 209 542 C195 542 182 539 170 534 C151 524 143 506 148 484 C155 462 174 455 195 451 C218 446 242 447 266 444 C289 441 314 432 337 428 C356 424 374 427 383 447 L383 447 Z M281 252 C297 257 308 268 312 284 C315 295 315 309 307 318 C298 328 251 334 239 334 C209 335 179 335 149 330 C121 325 85 318 61 299 C43 283 39 265 47 243 C56 217 78 220 100 224 C135 230 170 237 205 242 C230 246 257 243 281 252 L281 252 Z M253 133 C236 124 223 115 210 101 C196 84 184 67 182 44 C178 22 193 12 211 6 C232 -1 248 16 263 28 C298 57 338 83 367 118 C378 132 381 146 369 162 C342 197 277 149 253 133 L253 133 Z " />
<glyph glyph-name="bar" unicode="&#x7c;" horiz-adv-x="212" d="M69 497 C69 445 70 365 70 294 C70 259 70 225 69 199 C66 153 65 32 65 -13 C65 -35 65 -48 84 -61 C100 -70 115 -76 130 -63 C159 -39 156 -3 152 32 C148 69 146 140 146 200 C146 230 146 259 148 277 C150 332 152 454 154 509 C156 533 158 557 149 578 C144 591 128 609 113 608 C92 605 81 584 78 568 C73 546 69 520 69 497 L69 497 Z " />
<glyph glyph-name="braceright" unicode="&#x7d;" horiz-adv-x="441" d="M77 385 C95 384 112 398 126 406 C144 416 163 425 183 433 C210 442 236 446 263 454 C277 456 290 463 297 477 C302 490 294 504 286 516 C276 530 263 534 246 537 C205 542 166 520 131 499 C103 484 56 462 52 424 C50 405 57 388 77 385 L77 385 Z M390 319 C370 332 339 332 316 332 C280 332 241 332 204 330 C189 328 175 326 163 316 C149 300 141 284 149 264 C156 247 163 239 180 238 C205 238 232 246 257 246 C289 247 321 244 354 247 C372 248 395 253 400 275 C405 292 404 309 390 319 L390 319 Z M264 66 C241 79 220 88 197 97 C178 103 160 112 143 124 C130 133 118 142 101 140 C73 136 61 102 68 76 C73 57 98 44 114 36 C139 23 163 18 191 13 C201 10 216 8 231 8 C245 8 258 10 267 22 C279 37 282 57 264 66 L264 66 Z " />
<glyph glyph-name="asciitilde" unicode="&#x7e;" horiz-adv-x="543" d="M87 328 C54 290 43 247 43 197 C43 177 61 149 84 149 C116 149 118 173 125 195 C129 213 159 284 202 284 C219 284 245 241 259 219 C275 194 290 151 343 151 C359 151 376 154 387 160 C440 191 502 268 502 333 C502 356 487 383 460 383 C396 383 408 254 339 254 C326 254 306 290 294 310 C275 343 255 386 217 386 C205 386 123 369 87 328 L87 328 Z " />
<glyph glyph-name="exclamdown" unicode="&#xa1;" horiz-adv-x="284" d="M109 487 C112 456 134 458 158 460 C180 462 210 466 229 479 C246 491 257 510 257 529 C257 546 249 563 233 573 C220 581 213 576 201 570 C179 558 154 557 134 544 C114 529 107 511 109 487 L109 487 Z M73 -33 C99 -30 109 3 116 23 C135 78 154 135 170 192 C184 241 205 297 194 347 C191 367 178 373 160 364 C139 352 129 329 121 308 C107 276 97 242 87 209 C76 175 64 142 54 108 C44 78 32 46 33 15 C34 -8 43 -36 73 -33 L73 -33 Z " />
<glyph glyph-name="cent" unicode="&#xa2;" horiz-adv-x="419" d="M336 138 C354 149 373 167 373 185 C373 202 350 220 331 220 C290 220 258 186 210 186 C173 186 118 203 118 237 C118 296 212 347 266 347 C293 347 304 310 327 310 C347 310 368 335 368 355 C368 399 334 426 301 434 C301 453 303 464 303 481 C303 511 294 572 254 572 C221 572 223 523 221 500 C219 477 217 455 217 433 C175 422 88 384 65 331 C52 301 37 265 37 236 C37 149 120 106 195 102 C195 98 194 52 194 48 C194 31 193 -26 236 -26 C274 -26 283 14 283 37 C283 63 283 89 279 114 C298 120 318 129 336 138 L336 138 Z " />
<glyph glyph-name="sterling" unicode="&#xa3;" horiz-adv-x="513" d="M474 47 C481 58 481 78 472 88 C464 98 448 105 437 109 C420 115 399 114 381 112 C358 111 336 110 314 109 C293 107 272 106 251 103 C245 103 205 102 205 102 C205 102 263 158 280 195 C283 200 284 207 285 213 C289 213 294 213 298 213 C333 217 395 221 411 260 C425 295 377 313 351 309 C322 305 293 301 261 299 C252 309 243 318 235 327 C223 341 201 359 197 379 C194 398 219 418 232 427 C252 441 274 456 297 463 C318 468 332 464 346 447 C354 438 357 423 366 416 C375 407 391 411 401 418 C420 432 420 459 413 480 C401 519 355 542 316 544 C287 547 256 546 227 533 C201 522 177 500 157 481 C129 453 106 390 120 349 C126 331 139 314 151 299 C135 299 57 306 47 279 C36 242 68 225 102 220 C130 216 160 213 188 212 C188 196 162 169 150 159 C128 142 107 123 84 109 C69 101 51 91 41 78 C29 63 33 40 44 26 C54 10 69 -3 89 0 C108 3 128 12 147 16 C177 21 208 22 239 22 C276 23 314 26 351 30 C379 31 407 27 433 30 C448 31 465 34 474 47 L474 47 Z " />
<glyph glyph-name="yen" unicode="&#xa5;" horiz-adv-x="530" d="M357 325 C364 341 383 373 390 387 C419 438 445 459 476 511 C486 529 494 557 468 573 C448 584 406 573 393 557 C368 525 351 491 329 459 C311 433 293 402 278 376 C262 380 256 380 242 388 C211 401 149 466 128 500 C121 509 115 519 111 530 C108 538 101 543 93 548 C75 560 57 539 46 526 C40 520 36 494 44 469 C57 424 88 384 126 358 C150 341 169 322 192 308 C182 308 170 306 160 305 C148 305 137 303 128 297 C117 291 112 273 112 262 C107 222 174 225 204 228 C213 229 222 229 231 230 C232 211 232 191 234 173 C216 173 196 173 173 169 C154 167 139 169 123 159 C108 151 95 140 102 124 C106 114 120 100 130 93 C150 83 182 89 203 91 C214 91 225 92 236 92 C236 71 239 -3 248 -21 C258 -41 278 -50 296 -32 C311 -18 314 53 315 72 C317 80 317 88 317 96 C343 109 446 78 447 140 C447 151 435 169 423 175 C396 185 365 177 323 176 C323 190 326 225 332 241 C358 243 386 244 410 251 C429 257 438 272 438 287 C438 305 425 322 403 326 C389 328 372 327 357 325 L357 325 Z " />
<glyph glyph-name="dieresis" unicode="&#xa8;" horiz-adv-x="307" d="M266 689 C257 694 248 690 237 688 C196 667 182 668 182 637 C182 614 194 599 217 599 C229 599 232 605 241 611 C246 617 283 631 283 666 C283 676 274 687 266 689 L266 689 Z M120 669 C112 675 103 683 92 683 C37 683 25 643 26 646 C25 641 25 637 25 631 C25 610 46 599 64 599 C88 604 127 641 127 658 C127 662 124 668 120 669 L120 669 Z " />
<glyph glyph-name="copyright" unicode="&#xa9;" horiz-adv-x="673" d="M630 366 C625 401 613 436 591 466 C568 498 541 516 503 529 C476 539 447 544 418 546 C392 548 363 551 336 547 C316 544 295 539 274 534 C253 528 231 522 212 513 C188 503 163 485 142 468 C103 437 76 405 62 357 C53 327 49 296 49 265 C49 234 53 203 59 173 C65 143 117 55 137 36 C182 -6 250 -16 309 -13 C334 -13 358 -9 383 -3 C407 5 433 6 456 19 C506 47 548 80 582 124 C621 173 635 235 635 297 C635 321 634 344 630 366 L630 366 Z M550 239 C542 216 535 195 519 176 C489 141 451 112 407 97 C381 88 350 84 323 81 C297 80 273 87 247 89 C225 92 207 98 188 109 C168 118 149 127 138 146 C127 171 122 198 122 225 C122 244 124 264 129 282 C140 318 156 363 189 388 C224 414 264 425 304 442 C331 454 359 456 388 456 C414 458 433 451 459 446 C523 436 559 403 559 348 C559 310 561 271 550 239 L550 239 Z M450 335 C454 321 454 300 441 288 C425 277 410 287 401 299 C396 305 393 309 384 309 C376 309 366 306 358 304 C339 297 319 287 301 275 C287 265 282 250 273 235 C283 226 299 222 314 222 C328 222 344 226 356 229 C369 231 384 243 400 239 C407 237 420 221 424 213 C445 175 387 156 359 153 C348 151 335 150 322 150 C300 150 277 153 257 160 C230 172 211 213 211 239 C208 275 222 300 243 328 C263 356 297 376 326 387 C341 392 358 394 374 397 C410 402 428 387 444 354 C447 349 449 341 450 335 L450 335 Z " />
<glyph glyph-name="ordfeminine" unicode="&#xaa;" horiz-adv-x="376" d="M297 241 C300 238 309 234 318 234 C333 234 345 242 345 268 C345 303 329 327 329 327 C314 361 313 386 313 388 C317 407 319 428 319 448 C319 494 288 495 274 519 C257 548 253 555 210 555 C116 555 52 436 47 405 C44 384 39 359 39 337 C39 296 71 235 115 226 C128 223 142 222 155 222 C199 222 239 248 269 288 C281 280 271 267 297 241 L297 241 Z M235 387 C219 339 177 305 128 305 C113 305 108 315 108 328 C108 412 220 461 233 461 C239 461 242 458 242 448 C242 427 241 403 235 387 L235 387 Z " />
<glyph glyph-name="guillemotleft" unicode="&#xab;" horiz-adv-x="676" d="M597 177 C607 166 616 150 616 134 C616 110 600 102 583 102 C563 102 510 135 477 149 C459 156 443 166 426 175 C384 195 325 208 326 287 C326 323 365 361 393 376 C445 404 502 406 554 442 C563 448 574 453 585 453 C597 453 616 444 616 418 C616 360 524 320 478 313 C455 309 429 291 407 279 C447 272 494 243 530 222 C545 213 584 194 597 177 L597 177 Z M200 303 C222 313 244 332 263 350 C288 373 326 390 326 434 C326 452 320 467 303 467 C276 467 250 445 231 428 C215 414 145 377 126 369 C93 356 41 308 41 269 C41 201 184 140 234 118 C248 108 270 90 286 90 C307 90 318 105 318 137 C318 208 223 222 188 237 C166 246 149 258 129 268 C149 286 177 293 200 303 L200 303 Z " />
<glyph glyph-name="registered" unicode="&#xae;" horiz-adv-x="683" d="M631 350 C614 447 584 516 466 553 C435 566 387 564 352 564 C217 564 108 446 79 394 C51 344 46 279 43 256 C40 232 38 209 38 184 C38 102 122 55 181 17 C217 -8 290 -28 332 -28 C376 -28 496 18 527 45 C598 105 644 201 644 286 C644 308 638 328 631 350 L631 350 Z M555 220 C519 122 422 67 324 67 C245 67 106 93 106 216 C106 266 121 330 150 371 C200 431 289 479 366 479 C395 479 417 471 444 469 C481 469 502 451 525 423 C563 379 565 341 565 284 C565 262 563 241 555 220 L555 220 Z M431 217 C414 225 399 234 383 244 C427 259 473 274 473 335 C473 379 423 418 379 418 C344 418 307 402 269 401 C234 397 215 392 215 359 C215 321 227 272 227 226 C227 200 223 172 223 146 C223 128 231 107 253 107 C290 107 291 191 291 209 C291 217 290 219 303 222 C322 195 363 176 399 158 C416 149 428 134 449 134 C467 134 485 143 485 161 C485 190 453 207 431 217 L431 217 Z M293 290 L289 335 C320 345 343 349 361 349 C397 349 408 334 408 334 C373 303 293 290 293 290 L293 290 Z " />
<glyph glyph-name="macron" unicode="&#xaf;" horiz-adv-x="434" d="M79 574 C112 572 240 582 271 585 C303 586 337 584 367 593 C389 601 416 620 406 647 C399 664 386 673 369 668 C327 660 185 653 143 650 C120 646 98 649 75 646 C61 644 50 644 44 628 C32 596 55 576 79 574 L79 574 Z " />
<glyph glyph-name="degree" unicode="&#xb0;" horiz-adv-x="372" d="M311 503 C296 525 267 531 243 538 C234 541 224 543 215 543 C156 541 84 502 54 449 C34 410 55 365 78 332 C103 297 138 283 179 278 C228 272 263 296 296 330 C323 357 337 392 337 427 C337 453 328 480 311 503 L311 503 Z M241 402 C235 374 214 357 191 357 C179 357 166 361 155 370 C138 383 131 401 143 420 C153 437 181 449 197 454 C204 455 245 463 246 454 C248 436 245 419 241 402 L241 402 Z " />
<glyph glyph-name="acute" unicode="&#xb4;" horiz-adv-x="281" d="M80 678 C64 670 47 659 37 645 C31 636 33 628 41 622 C50 614 71 617 82 618 C121 622 182 645 216 665 C227 671 241 680 249 691 C256 700 252 709 247 715 C234 731 208 725 190 718 C163 705 108 691 80 678 L80 678 Z " />
<glyph glyph-name="periodcentered" unicode="&#xb7;" horiz-adv-x="214" d="M71 288 C51 272 38 252 38 232 C38 214 64 189 85 189 C138 189 173 283 173 294 C173 307 156 333 133 333 C103 333 88 302 71 288 L71 288 Z " />
<glyph glyph-name="cedilla" unicode="&#xb8;" horiz-adv-x="294" d="M261 -76 C254 -54 238 -37 226 -17 C217 1 199 26 176 25 C157 23 141 -4 144 -25 C146 -39 151 -57 157 -70 C162 -79 182 -94 182 -105 C182 -114 157 -131 149 -133 C137 -137 133 -133 123 -129 C101 -120 89 -114 67 -120 C49 -125 19 -146 32 -169 C43 -190 74 -203 93 -208 C146 -222 212 -199 248 -151 C265 -129 270 -102 261 -76 L261 -76 Z " />
<glyph glyph-name="ordmasculine" unicode="&#xba;" horiz-adv-x="350" d="M252 538 C235 551 208 560 184 560 C143 560 134 535 107 508 C60 461 38 404 38 344 C38 291 94 217 155 217 C238 217 307 338 312 393 C312 450 292 507 252 538 L252 538 Z M232 429 C227 377 182 303 140 303 C131 303 123 311 123 331 C123 351 133 400 146 416 C158 431 176 436 188 451 C194 460 203 474 213 474 C234 474 232 438 232 429 L232 429 Z " />
<glyph glyph-name="guillemotright" unicode="&#xbb;" horiz-adv-x="676" d="M330 239 C278 147 177 167 109 115 C100 109 90 104 79 104 C66 104 47 114 47 139 C47 197 140 238 185 244 C208 247 234 267 256 279 C216 286 170 314 133 335 C99 355 47 378 47 424 C47 448 63 456 80 456 C101 456 152 423 186 409 C204 401 220 392 237 383 C279 361 337 349 337 268 C337 258 335 249 330 239 L330 239 Z M609 334 C606 341 536 383 525 392 C500 413 465 421 429 440 C414 450 390 467 377 467 C356 467 345 449 345 422 C345 344 442 335 475 322 C496 313 513 298 534 290 C524 281 511 278 503 274 C463 257 432 237 400 207 C375 184 337 168 337 123 C337 106 340 90 359 90 C388 90 412 112 432 129 C456 150 503 174 537 189 C571 204 621 249 621 290 C621 304 617 316 609 334 L609 334 Z " />
<glyph glyph-name="questiondown" unicode="&#xbf;" horiz-adv-x="483" d="M240 265 C295 317 346 345 368 357 C401 376 433 355 422 316 C413 282 352 240 324 227 C263 196 244 180 183 130 C161 109 130 88 134 78 C138 68 187 66 222 68 C257 69 298 76 332 90 C365 104 430 126 425 77 C407 18 331 -2 279 -10 C252 -15 219 -18 187 -18 C118 -18 50 -4 38 39 C15 130 169 211 240 265 L240 265 Z M282 447 C300 439 310 443 328 449 C348 458 387 458 400 477 C407 488 405 503 404 515 C403 528 389 534 377 538 C364 542 321 537 308 532 C283 520 223 468 282 447 L282 447 Z " />
<glyph glyph-name="Agrave" unicode="&#xc0;" horiz-adv-x="582" d="M541 101 C535 125 528 149 522 173 C507 237 489 297 466 358 C453 389 436 419 422 449 C410 476 398 504 380 528 C365 548 343 555 318 557 C290 560 274 543 255 521 C204 463 169 385 136 316 C123 287 34 115 34 31 C34 5 43 -13 65 -14 C89 -17 107 -5 116 19 C127 47 129 70 138 96 C141 103 144 111 146 118 C214 129 287 144 358 150 C379 153 405 153 431 159 C439 128 456 75 469 48 C482 23 500 8 517 8 C530 8 542 17 550 39 C556 58 547 80 541 101 L541 101 Z M332 246 C301 242 278 239 247 233 C229 230 211 228 193 225 C207 255 220 284 234 313 C251 347 291 423 316 449 C343 393 376 322 400 255 C372 253 352 249 332 246 L332 246 Z M254 642 C282 629 337 613 364 600 C382 592 408 587 421 603 C426 609 430 620 423 627 C416 638 401 647 390 653 C356 673 295 697 256 700 C245 701 224 704 215 696 C207 689 205 682 211 674 C222 658 238 649 254 642 L254 642 Z " />
<glyph glyph-name="Aacute" unicode="&#xc1;" horiz-adv-x="582" d="M541 101 C535 125 528 149 522 173 C507 237 489 297 466 358 C453 389 436 419 422 449 C410 476 398 504 380 528 C365 548 343 555 318 557 C290 560 274 543 255 521 C204 463 169 385 136 316 C123 287 34 115 34 31 C34 5 43 -13 65 -14 C89 -17 107 -5 116 19 C127 47 129 70 138 96 C141 103 144 111 146 118 C214 129 287 144 358 150 C379 153 405 153 431 159 C439 128 456 75 469 48 C482 23 500 8 517 8 C530 8 542 17 550 39 C556 58 547 80 541 101 L541 101 Z M332 246 C301 242 278 239 247 233 C229 230 211 228 193 225 C207 255 220 284 234 313 C251 347 291 423 316 449 C343 393 376 322 400 255 C372 253 352 249 332 246 L332 246 Z M267 653 C251 645 234 634 224 620 C218 611 220 603 228 597 C237 589 258 592 269 593 C308 597 369 620 403 640 C414 646 428 655 436 666 C443 675 439 684 434 690 C421 706 395 700 377 693 C350 680 295 666 267 653 L267 653 Z " />
<glyph glyph-name="Acircumflex" unicode="&#xc2;" horiz-adv-x="582" d="M541 101 C535 125 528 149 522 173 C507 237 489 297 466 358 C453 389 436 419 422 449 C410 476 398 504 380 528 C365 548 343 555 318 557 C290 560 274 543 255 521 C204 463 169 385 136 316 C123 287 34 115 34 31 C34 5 43 -13 65 -14 C89 -17 107 -5 116 19 C127 47 129 70 138 96 C141 103 144 111 146 118 C214 129 287 144 358 150 C379 153 405 153 431 159 C439 128 456 75 469 48 C482 23 500 8 517 8 C530 8 542 17 550 39 C556 58 547 80 541 101 L541 101 Z M332 246 C301 242 278 239 247 233 C229 230 211 228 193 225 C207 255 220 284 234 313 C251 347 291 423 316 449 C343 393 376 322 400 255 C372 253 352 249 332 246 L332 246 Z M444 630 C416 658 368 711 326 711 C276 711 203 618 188 596 C185 592 183 589 183 586 C183 579 196 568 209 568 C263 568 288 643 332 654 C373 629 402 570 438 570 C453 570 456 581 456 592 C456 607 454 617 444 630 L444 630 Z " />
<glyph glyph-name="Atilde" unicode="&#xc3;" horiz-adv-x="582" d="M541 101 C535 125 528 149 522 173 C507 237 489 297 466 358 C453 389 436 419 422 449 C410 476 398 504 380 528 C365 548 343 555 318 557 C290 560 274 543 255 521 C204 463 169 385 136 316 C123 287 34 115 34 31 C34 5 43 -13 65 -14 C89 -17 107 -5 116 19 C127 47 129 70 138 96 C141 103 144 111 146 118 C214 129 287 144 358 150 C379 153 405 153 431 159 C439 128 456 75 469 48 C482 23 500 8 517 8 C530 8 542 17 550 39 C556 58 547 80 541 101 L541 101 Z M332 246 C301 242 278 239 247 233 C229 230 211 228 193 225 C207 255 220 284 234 313 C251 347 291 423 316 449 C343 393 376 322 400 255 C372 253 352 249 332 246 L332 246 Z M210 702 C188 676 181 648 181 614 C181 601 193 582 208 582 C230 582 231 598 236 613 C238 625 258 672 287 672 C299 672 316 644 325 629 C336 612 346 584 381 584 C392 584 403 586 411 590 C446 610 488 662 488 705 C488 720 478 738 460 738 C417 738 425 652 379 652 C370 652 357 676 349 690 C336 712 323 740 297 740 C289 740 234 729 210 702 L210 702 Z " />
<glyph glyph-name="Adieresis" unicode="&#xc4;" horiz-adv-x="582" d="M541 101 C535 125 528 149 522 173 C507 237 489 297 466 358 C453 389 436 419 422 449 C410 476 398 504 380 528 C365 548 343 555 318 557 C290 560 274 543 255 521 C204 463 169 385 136 316 C123 287 34 115 34 31 C34 5 43 -13 65 -14 C89 -17 107 -5 116 19 C127 47 129 70 138 96 C141 103 144 111 146 118 C214 129 287 144 358 150 C379 153 405 153 431 159 C439 128 456 75 469 48 C482 23 500 8 517 8 C530 8 542 17 550 39 C556 58 547 80 541 101 L541 101 Z M332 246 C301 242 278 239 247 233 C229 230 211 228 193 225 C207 255 220 284 234 313 C251 347 291 423 316 449 C343 393 376 322 400 255 C372 253 352 249 332 246 L332 246 Z M434 672 C425 677 416 673 405 671 C364 650 350 651 350 620 C350 597 362 582 385 582 C397 582 400 588 409 594 C414 600 451 614 451 649 C451 659 442 670 434 672 L434 672 Z M288 652 C280 658 271 666 260 666 C205 666 193 626 194 629 C193 624 193 620 193 614 C193 593 214 582 232 582 C256 587 295 624 295 641 C295 645 292 651 288 652 L288 652 Z " />
<glyph glyph-name="Aring" unicode="&#xc5;" horiz-adv-x="582" d="M403 692 C391 709 369 713 351 720 C345 721 337 722 330 722 C285 721 231 692 209 652 C193 623 210 588 227 564 C237 550 250 539 265 533 L255 521 C204 463 169 385 136 316 C123 287 34 115 34 31 C34 5 43 -13 65 -14 C89 -17 107 -5 116 19 C127 47 129 70 138 96 C141 103 144 111 146 118 C214 129 287 144 358 150 C379 153 405 153 431 159 C439 128 456 75 469 48 C482 23 500 8 517 8 C530 8 542 17 550 39 C556 58 547 80 541 101 L522 173 C507 237 489 297 466 358 C453 389 436 419 422 449 C410 476 398 504 380 528 C376 533 372 537 367 541 C375 547 383 554 390 562 C411 583 422 610 422 636 C422 655 416 674 403 692 L403 692 Z M332 246 C301 242 278 239 247 233 L193 225 L234 313 C251 347 291 423 316 449 C343 393 376 322 400 255 C372 253 352 249 332 246 L332 246 Z M350 617 C342 585 312 572 285 593 C272 602 267 616 276 630 C284 642 303 652 318 655 C321 656 354 663 354 655 C354 642 354 629 350 617 L350 617 Z " />
<glyph glyph-name="AE" unicode="&#xc6;" horiz-adv-x="761" d="M146 94 C184 91 217 98 253 101 C281 101 310 101 337 105 L337 84 C335 32 354 -16 410 -13 C438 -12 458 0 484 5 C509 10 606 19 632 22 C657 23 686 32 709 43 C725 49 740 72 732 96 C727 112 705 115 691 115 C678 115 664 119 621 111 C579 103 462 96 420 92 C420 122 422 125 425 147 C427 171 427 184 426 207 L467 216 C487 220 593 230 620 229 C643 228 670 229 694 241 C709 248 714 262 710 281 C704 313 657 319 615 319 C553 319 490 313 426 305 C427 331 423 367 425 379 C425 405 432 423 431 446 C475 458 605 468 651 466 C677 464 696 460 718 480 C739 498 735 515 720 535 C707 552 637 556 608 556 C553 556 492 554 436 543 C421 539 405 539 389 536 C384 536 377 534 370 532 C344 521 331 493 312 471 C291 445 271 415 251 389 C229 360 172 281 152 251 C116 201 80 148 48 96 C30 69 -10 5 25 -17 C37 -23 65 -13 76 -7 C92 3 105 29 114 46 C123 62 132 78 142 94 L146 94 Z M217 207 C247 250 302 324 342 378 L342 376 C342 326 343 272 345 234 L345 206 C304 198 262 197 221 193 C215 192 210 191 205 191 L217 207 Z " />
<glyph glyph-name="Ccedilla" unicode="&#xc7;" horiz-adv-x="552" d="M375 -33 C372 -25 369 -18 365 -12 C393 -7 419 2 442 16 C459 27 476 45 490 58 C515 83 534 144 490 155 C472 160 465 147 454 138 C408 103 372 71 312 71 C286 72 252 74 227 81 C194 92 167 111 150 140 C130 173 121 220 125 255 C128 290 143 322 159 353 C171 376 200 402 218 422 C233 434 283 460 302 467 C319 473 365 482 380 475 C420 454 408 450 430 427 C441 416 472 410 483 415 C523 436 499 498 473 519 C452 535 437 546 412 553 C397 559 376 561 357 561 C316 561 283 551 251 537 C193 513 138 472 103 422 C76 381 44 341 40 292 C39 278 37 264 37 250 C37 211 44 169 58 133 C74 89 115 43 158 13 C189 -9 229 -16 267 -18 C268 -21 269 -24 271 -27 C276 -36 296 -51 296 -62 C296 -71 271 -88 263 -90 C251 -94 247 -90 237 -86 C215 -77 203 -71 181 -77 C163 -82 133 -103 146 -126 C157 -147 188 -160 207 -165 C260 -179 326 -156 362 -108 C379 -86 384 -59 375 -33 L375 -33 Z " />
<glyph glyph-name="Egrave" unicode="&#xc8;" horiz-adv-x="487" d="M436 480 C457 498 453 515 438 535 C425 552 355 556 326 556 C271 556 210 554 154 543 C132 538 104 539 85 528 C66 515 64 480 63 458 C60 436 60 407 60 376 C60 326 61 272 63 234 C64 180 56 138 55 84 C53 32 72 -16 128 -13 C156 -12 176 0 202 5 C227 10 324 19 350 22 C375 23 404 32 427 43 C443 49 458 72 450 96 C445 112 423 115 409 115 C396 115 382 119 339 111 C297 103 180 96 138 92 C138 122 140 125 143 147 C145 171 145 184 144 207 C161 211 169 212 185 216 C205 220 311 230 338 229 C361 228 388 229 412 241 C427 248 432 262 428 281 C422 313 375 319 333 319 C271 319 208 313 144 305 C145 331 141 367 143 379 C143 405 150 423 149 446 C193 458 323 468 369 466 C395 464 414 460 436 480 L436 480 Z M200 638 C228 625 283 609 310 596 C328 588 354 583 367 599 C372 605 376 616 369 623 C362 634 347 643 336 649 C302 669 241 693 202 696 C191 697 170 700 161 692 C153 685 151 678 157 670 C168 654 184 645 200 638 L200 638 Z " />
<glyph glyph-name="Eacute" unicode="&#xc9;" horiz-adv-x="487" d="M436 480 C414 460 395 464 369 466 C323 468 193 458 149 446 C150 423 143 405 143 379 C141 367 145 331 144 305 C208 313 271 319 333 319 C375 319 422 313 428 281 C432 262 427 248 412 241 C388 229 361 228 338 229 C311 230 205 220 185 216 C169 212 161 211 144 207 C145 184 145 171 143 147 C140 125 138 122 138 92 C180 96 297 103 339 111 C382 119 396 115 409 115 C423 115 445 112 450 96 C458 72 443 49 427 43 C404 32 375 23 350 22 C324 19 227 10 202 5 C176 0 156 -12 128 -13 C72 -16 53 32 55 84 C56 138 64 180 63 234 C61 272 60 326 60 376 C60 407 60 436 63 458 C64 480 66 515 85 528 C104 539 132 538 154 543 C210 554 271 556 326 556 C355 556 425 552 438 535 C453 515 457 498 436 480 L436 480 Z M209 645 C193 637 176 626 166 612 C160 603 162 595 170 589 C179 581 200 584 211 585 C250 589 311 612 345 632 C356 638 370 647 378 658 C385 667 381 676 376 682 C363 698 337 692 319 685 C292 672 237 658 209 645 L209 645 Z " />
<glyph glyph-name="Ecircumflex" unicode="&#xca;" horiz-adv-x="487" d="M436 480 C414 460 395 464 369 466 C323 468 193 458 149 446 C150 423 143 405 143 379 C141 367 145 331 144 305 C208 313 271 319 333 319 C375 319 422 313 428 281 C432 262 427 248 412 241 C388 229 361 228 338 229 C311 230 205 220 185 216 C169 212 161 211 144 207 C145 184 145 171 143 147 C140 125 138 122 138 92 C180 96 297 103 339 111 C382 119 396 115 409 115 C423 115 445 112 450 96 C458 72 443 49 427 43 C404 32 375 23 350 22 C324 19 227 10 202 5 C176 0 156 -12 128 -13 C72 -16 53 32 55 84 C56 138 64 180 63 234 C61 272 60 326 60 376 C60 407 60 436 63 458 C64 480 66 515 85 528 C104 539 132 538 154 543 C210 554 271 556 326 556 C355 556 425 552 438 535 C453 515 457 498 436 480 L436 480 Z M385 651 C357 679 309 732 267 732 C217 732 144 639 129 617 C126 613 124 610 124 607 C124 600 137 589 150 589 C204 589 229 664 273 675 C314 650 343 591 379 591 C394 591 397 602 397 613 C397 628 395 638 385 651 L385 651 Z " />
<glyph glyph-name="Edieresis" unicode="&#xcb;" horiz-adv-x="487" d="M436 480 C457 498 453 515 438 535 C425 552 355 556 326 556 C271 556 210 554 154 543 C132 538 104 539 85 528 C66 515 64 480 63 458 C60 436 60 407 60 376 C60 326 61 272 63 234 C64 180 56 138 55 84 C53 32 72 -16 128 -13 C156 -12 176 0 202 5 C227 10 324 19 350 22 C375 23 404 32 427 43 C443 49 458 72 450 96 C445 112 423 115 409 115 C396 115 382 119 339 111 C297 103 180 96 138 92 C138 122 140 125 143 147 C145 171 145 184 144 207 C161 211 169 212 185 216 C205 220 311 230 338 229 C361 228 388 229 412 241 C427 248 432 262 428 281 C422 313 375 319 333 319 C271 319 208 313 144 305 C145 331 141 367 143 379 C143 405 150 423 149 446 C193 458 323 468 369 466 C395 464 414 460 436 480 L436 480 Z M397 680 C388 685 379 681 368 679 C327 658 313 659 313 628 C313 605 325 590 348 590 C360 590 363 596 372 602 C377 608 414 622 414 657 C414 667 405 678 397 680 L397 680 Z M251 660 C243 666 234 674 223 674 C168 674 156 634 157 637 C156 632 156 628 156 622 C156 601 177 590 195 590 C219 595 258 632 258 649 C258 653 255 659 251 660 L251 660 Z " />
<glyph glyph-name="Igrave" unicode="&#xcc;" horiz-adv-x="467" d="M428 47 C425 59 416 71 402 78 C390 84 376 85 362 85 C337 85 312 81 283 78 C272 94 273 149 273 172 C273 209 268 246 268 284 C268 325 270 363 274 403 C274 415 278 447 278 447 C278 447 278 447 299 450 C334 456 374 449 406 467 C420 475 424 493 421 508 C419 525 406 537 392 544 C380 551 366 553 353 553 C330 553 305 547 283 543 C211 534 233 534 159 534 C140 534 80 534 63 520 C52 509 49 487 50 475 C52 459 65 450 78 444 C90 436 103 434 116 434 C120 434 182 436 182 436 C182 436 181 390 181 359 C181 319 181 279 181 238 C181 198 184 159 185 119 C186 106 189 87 194 70 C166 68 141 68 109 71 C97 71 84 67 72 63 C56 57 49 43 44 27 C41 14 49 1 56 -10 C77 -39 157 -27 189 -22 C231 -17 390 -28 420 5 C428 13 429 36 428 47 L428 47 Z M163 637 C191 624 246 608 273 595 C291 587 317 582 330 598 C335 604 339 615 332 622 C325 633 310 642 299 648 C265 668 204 692 165 695 C154 696 133 699 124 691 C116 684 114 677 120 669 C131 653 147 644 163 637 L163 637 Z " />
<glyph glyph-name="Iacute" unicode="&#xcd;" horiz-adv-x="467" d="M428 47 C429 36 428 13 420 5 C390 -28 231 -17 189 -22 C157 -27 77 -39 56 -10 C49 1 41 14 44 27 C49 43 56 57 72 63 C84 67 97 71 109 71 C141 68 166 68 194 70 C189 87 186 106 185 119 C184 159 181 198 181 238 C181 279 181 319 181 359 C181 390 182 436 182 436 C182 436 120 434 116 434 C103 434 90 436 78 444 C65 450 52 459 50 475 C49 487 52 509 63 520 C80 534 140 534 159 534 C233 534 211 534 283 543 C305 547 330 553 353 553 C366 553 380 551 392 544 C406 537 419 525 421 508 C424 493 420 475 406 467 C374 449 334 456 299 450 C278 447 278 447 278 447 C278 447 274 415 274 403 C270 363 268 325 268 284 C268 246 273 209 273 172 C273 149 272 94 283 78 C312 81 337 85 362 85 C376 85 390 84 402 78 C416 71 425 59 428 47 L428 47 Z M178 637 C162 629 145 618 135 604 C129 595 131 587 139 581 C148 573 169 576 180 577 C219 581 280 604 314 624 C325 630 339 639 347 650 C354 659 350 668 345 674 C332 690 306 684 288 677 C261 664 206 650 178 637 L178 637 Z " />
<glyph glyph-name="Icircumflex" unicode="&#xce;" horiz-adv-x="467" d="M428 47 C429 36 428 13 420 5 C390 -28 231 -17 189 -22 C157 -27 77 -39 56 -10 C49 1 41 14 44 27 C49 43 56 57 72 63 C84 67 97 71 109 71 C141 68 166 68 194 70 C189 87 186 106 185 119 C184 159 181 198 181 238 C181 279 181 319 181 359 C181 390 182 436 182 436 C182 436 120 434 116 434 C103 434 90 436 78 444 C65 450 52 459 50 475 C49 487 52 509 63 520 C80 534 140 534 159 534 C233 534 211 534 283 543 C305 547 330 553 353 553 C366 553 380 551 392 544 C406 537 419 525 421 508 C424 493 420 475 406 467 C374 449 334 456 299 450 C278 447 278 447 278 447 C278 447 274 415 274 403 C270 363 268 325 268 284 C268 246 273 209 273 172 C273 149 272 94 283 78 C312 81 337 85 362 85 C376 85 390 84 402 78 C416 71 425 59 428 47 L428 47 Z M358 636 C330 664 282 717 240 717 C190 717 117 624 102 602 C99 598 97 595 97 592 C97 585 110 574 123 574 C177 574 202 649 246 660 C287 635 316 576 352 576 C367 576 370 587 370 598 C370 613 368 623 358 636 L358 636 Z " />
<glyph glyph-name="Idieresis" unicode="&#xcf;" horiz-adv-x="467" d="M428 47 C425 59 416 71 402 78 C390 84 376 85 362 85 C337 85 312 81 283 78 C272 94 273 149 273 172 C273 209 268 246 268 284 C268 325 270 363 274 403 C274 415 278 447 278 447 C278 447 278 447 299 450 C334 456 374 449 406 467 C420 475 424 493 421 508 C419 525 406 537 392 544 C380 551 366 553 353 553 C330 553 305 547 283 543 C211 534 233 534 159 534 C140 534 80 534 63 520 C52 509 49 487 50 475 C52 459 65 450 78 444 C90 436 103 434 116 434 C120 434 182 436 182 436 C182 436 181 390 181 359 C181 319 181 279 181 238 C181 198 184 159 185 119 C186 106 189 87 194 70 C166 68 141 68 109 71 C97 71 84 67 72 63 C56 57 49 43 44 27 C41 14 49 1 56 -10 C77 -39 157 -27 189 -22 C231 -17 390 -28 420 5 C428 13 429 36 428 47 L428 47 Z M346 674 C337 679 328 675 317 673 C276 652 262 653 262 622 C262 599 274 584 297 584 C309 584 312 590 321 596 C326 602 363 616 363 651 C363 661 354 672 346 674 L346 674 Z M200 654 C192 660 183 668 172 668 C117 668 105 628 106 631 C105 626 105 622 105 616 C105 595 126 584 144 584 C168 589 207 626 207 643 C207 647 204 653 200 654 L200 654 Z " />
<glyph glyph-name="Eth" unicode="&#xd0;" horiz-adv-x="555" d="M512 420 C503 462 464 493 433 519 C406 541 371 548 336 556 C318 561 301 562 283 562 C263 562 243 560 221 556 C203 552 188 547 169 544 C153 543 135 546 116 542 C101 538 80 525 75 507 C71 491 76 477 78 462 C78 426 78 394 80 361 C82 340 84 319 84 298 L78 298 C62 298 45 298 31 286 C18 275 7 226 27 219 C39 214 56 212 69 211 C74 211 79 210 85 210 L85 197 C85 139 85 91 91 41 C93 26 92 9 104 -1 C118 -16 138 -19 158 -19 C172 -19 186 -17 200 -16 C220 -13 238 -6 256 -4 C274 -1 300 8 317 16 C363 34 422 67 451 119 C462 138 476 154 494 191 C515 231 519 265 524 309 C528 348 520 384 512 420 L512 420 Z M252 324 L173 308 C173 372 171 450 171 450 C199 451 294 478 294 478 C388 467 419 427 429 406 C435 393 441 370 441 337 C441 317 438 294 432 269 C415 206 378 147 310 114 C257 85 167 83 167 83 C167 83 171 164 172 214 C204 218 234 225 259 236 C270 240 285 246 294 256 C310 272 316 308 291 318 C278 324 267 326 252 324 L252 324 Z " />
<glyph glyph-name="Ntilde" unicode="&#xd1;" horiz-adv-x="587" d="M62 283 C62 262 65 243 66 221 C66 157 66 108 61 61 C58 32 65 -8 98 -14 C152 -21 146 64 149 93 C149 158 149 204 149 250 C149 283 144 317 145 350 C145 356 146 359 146 363 C174 340 201 318 223 290 C262 233 316 175 360 120 C389 80 424 42 445 3 C453 -12 470 -19 485 -17 C524 -7 525 23 525 56 C523 93 521 132 521 171 C521 236 522 304 526 369 C528 384 528 400 530 416 C533 433 535 453 538 469 C545 504 535 544 520 551 C503 557 485 565 470 556 C458 548 454 541 449 528 C442 513 442 491 442 475 C441 455 440 436 440 415 C440 379 438 345 435 310 C430 272 426 232 426 195 C401 226 388 237 369 260 C316 328 262 383 213 440 C199 456 184 473 144 499 C120 515 86 527 65 506 C49 489 48 464 51 442 C56 389 62 335 62 283 L62 283 Z M169 646 C147 620 140 592 140 558 C140 545 152 526 167 526 C189 526 190 542 195 557 C197 569 217 616 246 616 C258 616 275 588 284 573 C295 556 305 528 340 528 C351 528 362 530 370 534 C405 554 447 606 447 649 C447 664 437 682 419 682 C376 682 384 596 338 596 C329 596 316 620 308 634 C295 656 282 684 256 684 C248 684 193 673 169 646 L169 646 Z " />
<glyph glyph-name="Ograve" unicode="&#xd2;" horiz-adv-x="678" d="M636 299 C630 331 626 369 610 400 C601 419 590 438 577 454 C559 477 539 498 521 520 C508 535 493 552 475 559 C450 568 420 571 396 574 C367 574 337 568 312 561 C259 548 209 524 167 490 C132 463 105 428 87 385 C71 349 50 313 43 274 C37 253 35 231 35 209 C35 190 37 172 41 153 C48 129 58 105 69 83 C80 57 102 45 123 28 C153 7 217 -25 248 -28 C264 -30 278 -31 294 -31 C325 -31 356 -27 384 -21 C405 -17 429 -10 447 -3 C472 9 491 26 512 41 C558 74 588 112 614 160 C635 199 644 251 636 299 L636 299 Z M513 189 C462 119 383 70 292 70 C275 70 259 71 241 75 C221 80 200 92 182 101 C167 109 150 119 140 134 C127 153 122 176 122 198 C122 216 124 235 129 251 C142 294 163 322 191 354 C219 384 248 416 283 438 C316 460 366 464 406 460 C425 458 445 449 463 438 C500 419 531 378 544 335 C550 318 552 299 553 281 C555 244 533 216 513 189 L513 189 Z M302 659 C330 646 385 630 412 617 C430 609 456 604 469 620 C474 626 478 637 471 644 C464 655 449 664 438 670 C404 690 343 714 304 717 C293 718 272 721 263 713 C255 706 253 699 259 691 C270 675 286 666 302 659 L302 659 Z " />
<glyph glyph-name="Oacute" unicode="&#xd3;" horiz-adv-x="678" d="M636 299 C630 331 626 369 610 400 C601 419 590 438 577 454 C559 477 539 498 521 520 C508 535 493 552 475 559 C450 568 420 571 396 574 C367 574 337 568 312 561 C259 548 209 524 167 490 C132 463 105 428 87 385 C71 349 50 313 43 274 C37 253 35 231 35 209 C35 190 37 172 41 153 C48 129 58 105 69 83 C80 57 102 45 123 28 C153 7 217 -25 248 -28 C264 -30 278 -31 294 -31 C325 -31 356 -27 384 -21 C405 -17 429 -10 447 -3 C472 9 491 26 512 41 C558 74 588 112 614 160 C635 199 644 251 636 299 L636 299 Z M513 189 C462 119 383 70 292 70 C275 70 259 71 241 75 C221 80 200 92 182 101 C167 109 150 119 140 134 C127 153 122 176 122 198 C122 216 124 235 129 251 C142 294 163 322 191 354 C219 384 248 416 283 438 C316 460 366 464 406 460 C425 458 445 449 463 438 C500 419 531 378 544 335 C550 318 552 299 553 281 C555 244 533 216 513 189 L513 189 Z M307 666 C291 658 274 647 264 633 C258 624 260 616 268 610 C277 602 298 605 309 606 C348 610 409 633 443 653 C454 659 468 668 476 679 C483 688 479 697 474 703 C461 719 435 713 417 706 C390 693 335 679 307 666 L307 666 Z " />
<glyph glyph-name="Ocircumflex" unicode="&#xd4;" horiz-adv-x="678" d="M636 299 C630 331 626 369 610 400 C601 419 590 438 577 454 C559 477 539 498 521 520 C508 535 493 552 475 559 C450 568 420 571 396 574 C367 574 337 568 312 561 C259 548 209 524 167 490 C132 463 105 428 87 385 C71 349 50 313 43 274 C37 253 35 231 35 209 C35 190 37 172 41 153 C48 129 58 105 69 83 C80 57 102 45 123 28 C153 7 217 -25 248 -28 C264 -30 278 -31 294 -31 C325 -31 356 -27 384 -21 C405 -17 429 -10 447 -3 C472 9 491 26 512 41 C558 74 588 112 614 160 C635 199 644 251 636 299 L636 299 Z M513 189 C462 119 383 70 292 70 C275 70 259 71 241 75 C221 80 200 92 182 101 C167 109 150 119 140 134 C127 153 122 176 122 198 C122 216 124 235 129 251 C142 294 163 322 191 354 C219 384 248 416 283 438 C316 460 366 464 406 460 C425 458 445 449 463 438 C500 419 531 378 544 335 C550 318 552 299 553 281 C555 244 533 216 513 189 L513 189 Z M490 659 C462 687 414 740 372 740 C322 740 249 647 234 625 C231 621 229 618 229 615 C229 608 242 597 255 597 C309 597 334 672 378 683 C419 658 448 599 484 599 C499 599 502 610 502 621 C502 636 500 646 490 659 L490 659 Z " />
<glyph glyph-name="Otilde" unicode="&#xd5;" horiz-adv-x="678" d="M636 299 C630 331 626 369 610 400 C601 419 590 438 577 454 C559 477 539 498 521 520 C508 535 493 552 475 559 C450 568 420 571 396 574 C367 574 337 568 312 561 C259 548 209 524 167 490 C132 463 105 428 87 385 C71 349 50 313 43 274 C37 253 35 231 35 209 C35 190 37 172 41 153 C48 129 58 105 69 83 C80 57 102 45 123 28 C153 7 217 -25 248 -28 C264 -30 278 -31 294 -31 C325 -31 356 -27 384 -21 C405 -17 429 -10 447 -3 C472 9 491 26 512 41 C558 74 588 112 614 160 C635 199 644 251 636 299 L636 299 Z M513 189 C462 119 383 70 292 70 C275 70 259 71 241 75 C221 80 200 92 182 101 C167 109 150 119 140 134 C127 153 122 176 122 198 C122 216 124 235 129 251 C142 294 163 322 191 354 C219 384 248 416 283 438 C316 460 366 464 406 460 C425 458 445 449 463 438 C500 419 531 378 544 335 C550 318 552 299 553 281 C555 244 533 216 513 189 L513 189 Z M227 729 C205 703 198 675 198 641 C198 628 210 609 225 609 C247 609 248 625 253 640 C255 652 275 699 304 699 C316 699 333 671 342 656 C353 639 363 611 398 611 C409 611 420 613 428 617 C463 637 505 689 505 732 C505 747 495 765 477 765 C434 765 442 679 396 679 C387 679 374 703 366 717 C353 739 340 767 314 767 C306 767 251 756 227 729 L227 729 Z " />
<glyph glyph-name="Odieresis" unicode="&#xd6;" horiz-adv-x="678" d="M636 299 C630 331 626 369 610 400 C601 419 590 438 577 454 C559 477 539 498 521 520 C508 535 493 552 475 559 C450 568 420 571 396 574 C367 574 337 568 312 561 C259 548 209 524 167 490 C132 463 105 428 87 385 C71 349 50 313 43 274 C37 253 35 231 35 209 C35 190 37 172 41 153 C48 129 58 105 69 83 C80 57 102 45 123 28 C153 7 217 -25 248 -28 C264 -30 278 -31 294 -31 C325 -31 356 -27 384 -21 C405 -17 429 -10 447 -3 C472 9 491 26 512 41 C558 74 588 112 614 160 C635 199 644 251 636 299 L636 299 Z M513 189 C462 119 383 70 292 70 C275 70 259 71 241 75 C221 80 200 92 182 101 C167 109 150 119 140 134 C127 153 122 176 122 198 C122 216 124 235 129 251 C142 294 163 322 191 354 C219 384 248 416 283 438 C316 460 366 464 406 460 C425 458 445 449 463 438 C500 419 531 378 544 335 C550 318 552 299 553 281 C555 244 533 216 513 189 L513 189 Z M491 690 C482 695 473 691 462 689 C421 668 407 669 407 638 C407 615 419 600 442 600 C454 600 457 606 466 612 C471 618 508 632 508 667 C508 677 499 688 491 690 L491 690 Z M345 670 C337 676 328 684 317 684 C262 684 250 644 251 647 C250 642 250 638 250 632 C250 611 271 600 289 600 C313 605 352 642 352 659 C352 663 349 669 345 670 L345 670 Z " />
<glyph glyph-name="multiply" unicode="&#xd7;" horiz-adv-x="334" d="M301 383 C291 399 282 408 260 406 C242 404 228 394 215 380 C195 358 176 335 157 314 C146 330 134 345 122 361 C113 373 102 397 87 403 C75 408 49 396 41 387 C17 357 37 319 61 293 C73 276 87 260 99 241 C77 219 1 147 45 110 C56 102 74 101 89 107 C104 112 111 126 122 139 C132 152 143 163 153 175 C162 163 171 153 181 141 C189 132 198 120 207 111 C221 97 238 86 261 94 C273 100 290 101 291 119 C296 158 267 182 242 210 C232 221 222 231 213 241 C241 274 269 303 293 337 C306 353 312 366 301 383 L301 383 Z " />
<glyph glyph-name="Oslash" unicode="&#xd8;" horiz-adv-x="678" d="M636 299 C630 331 626 369 610 400 C601 419 590 438 577 454 C561 474 542 493 526 513 C544 540 560 568 548 599 C539 619 524 622 504 612 C484 602 474 582 462 563 C440 569 416 571 396 574 C367 574 337 568 312 561 C259 548 209 524 167 490 C132 463 105 428 87 385 C71 349 50 313 43 274 C37 253 35 231 35 209 C35 190 37 172 41 153 C48 129 58 105 69 83 C80 57 102 45 123 28 C130 23 139 17 150 11 C135 -21 121 -65 150 -80 C162 -85 189 -72 199 -65 C211 -56 220 -39 227 -23 C235 -26 242 -27 248 -28 C264 -30 278 -31 294 -31 C325 -31 356 -27 384 -21 C405 -17 429 -10 447 -3 C472 9 491 26 512 41 C558 74 588 112 614 160 C635 199 644 251 636 299 L636 299 Z M513 189 C462 119 383 70 292 70 L271 70 C286 101 302 131 321 160 L475 430 C507 409 532 373 544 335 C550 318 552 299 553 281 C555 244 533 216 513 189 L513 189 Z M398 459 C379 428 270 230 252 198 C232 164 212 130 193 95 L182 101 C167 109 150 119 140 134 C127 153 122 176 122 198 C122 216 124 235 129 251 C142 294 163 322 191 354 C219 384 248 416 283 438 C314 459 360 464 399 461 C399 460 398 459 398 459 L398 459 Z " />
<glyph glyph-name="Ugrave" unicode="&#xd9;" horiz-adv-x="579" d="M56 241 C61 193 63 80 96 41 C128 1 141 -8 194 -19 C238 -31 338 -6 379 10 C421 27 482 39 491 94 C497 142 507 193 507 242 C507 296 519 349 523 405 C524 429 528 453 532 477 C537 506 542 524 520 548 C506 564 475 573 460 555 C447 541 440 511 436 491 C426 440 425 381 425 326 C423 273 419 217 413 167 C410 136 375 114 348 106 C320 98 294 94 266 91 C209 81 166 128 156 176 C149 212 147 253 147 292 C147 308 147 325 148 339 C150 374 156 412 156 450 C156 464 156 478 153 493 C150 512 126 535 105 541 C75 551 66 517 64 497 C59 455 59 414 57 372 C56 343 55 312 55 282 C55 268 55 255 56 241 L56 241 Z M214 563 C242 550 297 534 324 521 C342 513 368 508 381 524 C386 530 390 541 383 548 C376 559 361 568 350 574 C316 594 255 618 216 621 C205 622 184 625 175 617 C167 610 165 603 171 595 C182 579 198 570 214 563 L214 563 Z " />
<glyph glyph-name="Uacute" unicode="&#xda;" horiz-adv-x="579" d="M56 241 C61 193 63 80 96 41 C128 1 141 -8 194 -19 C238 -31 338 -6 379 10 C421 27 482 39 491 94 C497 142 507 193 507 242 C507 296 519 349 523 405 C524 429 528 453 532 477 C537 506 542 524 520 548 C506 564 475 573 460 555 C447 541 440 511 436 491 C426 440 425 381 425 326 C423 273 419 217 413 167 C410 136 375 114 348 106 C320 98 294 94 266 91 C209 81 166 128 156 176 C149 212 147 253 147 292 C147 308 147 325 148 339 C150 374 156 412 156 450 C156 464 156 478 153 493 C150 512 126 535 105 541 C75 551 66 517 64 497 C59 455 59 414 57 372 C56 343 55 312 55 282 C55 268 55 255 56 241 L56 241 Z M252 608 C236 600 219 589 209 575 C203 566 205 558 213 552 C222 544 243 547 254 548 C293 552 354 575 388 595 C399 601 413 610 421 621 C428 630 424 639 419 645 C406 661 380 655 362 648 C335 635 280 621 252 608 L252 608 Z " />
<glyph glyph-name="Ucircumflex" unicode="&#xdb;" horiz-adv-x="579" d="M56 241 C61 193 63 80 96 41 C128 1 141 -8 194 -19 C238 -31 338 -6 379 10 C421 27 482 39 491 94 C497 142 507 193 507 242 C507 296 519 349 523 405 C524 429 528 453 532 477 C537 506 542 524 520 548 C506 564 475 573 460 555 C447 541 440 511 436 491 C426 440 425 381 425 326 C423 273 419 217 413 167 C410 136 375 114 348 106 C320 98 294 94 266 91 C209 81 166 128 156 176 C149 212 147 253 147 292 C147 308 147 325 148 339 C150 374 156 412 156 450 C156 464 156 478 153 493 C150 512 126 535 105 541 C75 551 66 517 64 497 C59 455 59 414 57 372 C56 343 55 312 55 282 C55 268 55 255 56 241 L56 241 Z M414 637 C386 665 338 718 296 718 C246 718 173 625 158 603 C155 599 153 596 153 593 C153 586 166 575 179 575 C233 575 258 650 302 661 C343 636 372 577 408 577 C423 577 426 588 426 599 C426 614 424 624 414 637 L414 637 Z " />
<glyph glyph-name="Udieresis" unicode="&#xdc;" horiz-adv-x="579" d="M56 241 C61 193 63 80 96 41 C128 1 141 -8 194 -19 C238 -31 338 -6 379 10 C421 27 482 39 491 94 C497 142 507 193 507 242 C507 296 519 349 523 405 C524 429 528 453 532 477 C537 506 542 524 520 548 C506 564 475 573 460 555 C447 541 440 511 436 491 C426 440 425 381 425 326 C423 273 419 217 413 167 C410 136 375 114 348 106 C320 98 294 94 266 91 C209 81 166 128 156 176 C149 212 147 253 147 292 C147 308 147 325 148 339 C150 374 156 412 156 450 C156 464 156 478 153 493 C150 512 126 535 105 541 C75 551 66 517 64 497 C59 455 59 414 57 372 C56 343 55 312 55 282 C55 268 55 255 56 241 L56 241 Z M413 648 C404 653 395 649 384 647 C343 626 329 627 329 596 C329 573 341 558 364 558 C376 558 379 564 388 570 C393 576 430 590 430 625 C430 635 421 646 413 648 L413 648 Z M267 628 C259 634 250 642 239 642 C184 642 172 602 173 605 C172 600 172 596 172 590 C172 569 193 558 211 558 C235 563 274 600 274 617 C274 621 271 627 267 628 L267 628 Z " />
<glyph glyph-name="Yacute" unicode="&#xdd;" horiz-adv-x="539" d="M524 537 C524 519 519 500 510 484 C483 429 449 376 423 319 C410 291 400 262 387 234 C374 207 361 181 347 154 C326 116 311 76 285 41 C263 13 245 -34 204 -17 C184 -9 175 0 178 23 C180 41 188 57 197 72 C216 108 231 140 249 171 C254 182 272 222 278 234 C261 247 251 256 238 266 C212 288 188 313 161 333 C131 358 109 380 76 404 C50 424 32 442 23 474 C18 495 20 513 35 526 C51 539 66 532 85 522 C127 496 175 456 207 419 C230 390 266 366 294 342 C302 336 310 328 319 322 C336 356 339 363 357 397 C375 430 395 471 416 502 C432 528 444 560 479 564 C501 565 524 562 524 537 L524 537 Z M248 584 C232 576 215 565 205 551 C199 542 201 534 209 528 C218 520 239 523 250 524 C289 528 350 551 384 571 C395 577 409 586 417 597 C424 606 420 615 415 621 C402 637 376 631 358 624 C331 611 276 597 248 584 L248 584 Z " />
<glyph glyph-name="Thorn" unicode="&#xde;" horiz-adv-x="497" d="M462 330 C461 348 448 376 432 388 C422 397 407 405 394 410 C372 419 352 428 329 431 C302 434 275 436 249 436 C216 436 181 433 149 431 C148 450 148 470 145 489 C143 515 136 531 125 553 C112 578 91 581 72 562 C65 556 55 544 52 534 C50 513 56 494 60 475 C64 455 66 436 66 416 C66 400 68 383 68 365 C70 325 72 284 72 244 C72 180 61 116 61 52 C61 35 63 18 69 3 C74 -9 91 -28 104 -28 C122 -28 135 -5 140 8 C149 31 147 61 149 85 C150 92 150 98 152 105 C180 103 214 111 241 122 C281 136 317 153 353 175 C385 195 417 219 438 250 C452 270 465 303 462 330 L462 330 Z M298 234 C255 212 206 194 158 189 C158 195 158 202 158 209 C158 250 157 290 154 330 C169 334 184 339 198 343 C216 347 233 349 251 349 C266 349 280 348 295 345 C324 341 353 337 374 317 C393 301 310 240 298 234 L298 234 Z " />
<glyph glyph-name="germandbls" unicode="&#xdf;" horiz-adv-x="536" d="M54 191 C46 146 37 102 37 58 C37 41 38 23 42 6 C47 -19 59 -57 90 -58 C115 -59 120 -43 120 -23 C120 -9 117 8 117 18 C117 63 119 110 125 154 C134 208 138 265 155 318 C168 358 173 405 197 441 C213 464 239 481 265 489 C278 494 293 497 309 497 C327 497 345 491 357 477 C369 462 376 442 369 422 C353 370 293 347 249 325 C230 314 213 301 216 278 C217 261 227 241 241 231 C258 222 289 231 309 229 C333 225 359 225 382 212 C395 204 415 184 420 168 C438 104 318 106 288 102 C272 100 247 101 238 84 C230 67 240 39 253 27 C270 9 297 5 320 4 C338 3 355 5 373 9 C397 13 421 21 441 36 C481 67 509 131 500 178 C495 207 485 230 466 252 C450 273 417 296 390 300 C416 327 438 352 447 391 C451 403 452 418 452 431 C452 462 443 493 430 521 C420 542 395 562 376 575 C357 587 332 594 310 594 C248 594 177 577 141 521 C102 460 84 392 72 319 C66 277 60 234 54 191 L54 191 Z " />
<glyph glyph-name="agrave" unicode="&#xe0;" horiz-adv-x="536" d="M504 92 C495 147 482 208 462 260 C437 321 418 378 396 438 C381 479 362 527 327 548 C309 560 292 557 273 548 C251 538 241 529 224 508 C200 481 195 451 180 419 C160 381 146 348 129 309 C114 275 98 237 87 200 C74 160 53 124 44 85 C40 69 34 40 34 16 C34 -4 38 -19 52 -27 C96 -51 114 23 134 70 C142 89 153 109 159 127 C197 130 232 140 269 145 C299 149 327 153 358 155 C371 156 379 158 393 158 C397 145 401 131 403 116 C411 87 432 16 467 12 C508 6 512 53 504 92 L504 92 Z M325 242 C279 237 238 220 194 220 C198 229 203 244 206 253 C231 325 250 369 287 431 C294 419 294 419 300 407 C312 385 322 366 332 343 C342 320 358 274 367 247 C348 246 335 243 325 242 L325 242 Z M220 627 C248 614 303 598 330 585 C348 577 374 572 387 588 C392 594 396 605 389 612 C382 623 367 632 356 638 C322 658 261 682 222 685 C211 686 190 689 181 681 C173 674 171 667 177 659 C188 643 204 634 220 627 L220 627 Z " />
<glyph glyph-name="aacute" unicode="&#xe1;" horiz-adv-x="536" d="M504 92 C495 147 482 208 462 260 C437 321 418 378 396 438 C381 479 362 527 327 548 C309 560 292 557 273 548 C251 538 241 529 224 508 C200 481 195 451 180 419 C160 381 146 348 129 309 C114 275 98 237 87 200 C74 160 53 124 44 85 C40 69 34 40 34 16 C34 -4 38 -19 52 -27 C96 -51 114 23 134 70 C142 89 153 109 159 127 C197 130 232 140 269 145 C299 149 327 153 358 155 C371 156 379 158 393 158 C397 145 401 131 403 116 C411 87 432 16 467 12 C508 6 512 53 504 92 L504 92 Z M325 242 C279 237 238 220 194 220 C198 229 203 244 206 253 C231 325 250 369 287 431 C294 419 294 419 300 407 C312 385 322 366 332 343 C342 320 358 274 367 247 C348 246 335 243 325 242 L325 242 Z M224 637 C208 629 191 618 181 604 C175 595 177 587 185 581 C194 573 215 576 226 577 C265 581 326 604 360 624 C371 630 385 639 393 650 C400 659 396 668 391 674 C378 690 352 684 334 677 C307 664 252 650 224 637 L224 637 Z " />
<glyph glyph-name="acircumflex" unicode="&#xe2;" horiz-adv-x="536" d="M504 92 C495 147 482 208 462 260 C437 321 418 378 396 438 C381 479 362 527 327 548 C309 560 292 557 273 548 C251 538 241 529 224 508 C200 481 195 451 180 419 C160 381 146 348 129 309 C114 275 98 237 87 200 C74 160 53 124 44 85 C40 69 34 40 34 16 C34 -4 38 -19 52 -27 C96 -51 114 23 134 70 C142 89 153 109 159 127 C197 130 232 140 269 145 C299 149 327 153 358 155 C371 156 379 158 393 158 C397 145 401 131 403 116 C411 87 432 16 467 12 C508 6 512 53 504 92 L504 92 Z M325 242 C279 237 238 220 194 220 C198 229 203 244 206 253 C231 325 250 369 287 431 C294 419 294 419 300 407 C312 385 322 366 332 343 C342 320 358 274 367 247 C348 246 335 243 325 242 L325 242 Z M408 607 C380 635 332 688 290 688 C240 688 167 595 152 573 C149 569 147 566 147 563 C147 556 160 545 173 545 C227 545 252 620 296 631 C337 606 366 547 402 547 C417 547 420 558 420 569 C420 584 418 594 408 607 L408 607 Z " />
<glyph glyph-name="atilde" unicode="&#xe3;" horiz-adv-x="536" d="M504 92 C495 147 482 208 462 260 C437 321 418 378 396 438 C381 479 362 527 327 548 C309 560 292 557 273 548 C251 538 241 529 224 508 C200 481 195 451 180 419 C160 381 146 348 129 309 C114 275 98 237 87 200 C74 160 53 124 44 85 C40 69 34 40 34 16 C34 -4 38 -19 52 -27 C96 -51 114 23 134 70 C142 89 153 109 159 127 C197 130 232 140 269 145 C299 149 327 153 358 155 C371 156 379 158 393 158 C397 145 401 131 403 116 C411 87 432 16 467 12 C508 6 512 53 504 92 L504 92 Z M325 242 C279 237 238 220 194 220 C198 229 203 244 206 253 C231 325 250 369 287 431 C294 419 294 419 300 407 C312 385 322 366 332 343 C342 320 358 274 367 247 C348 246 335 243 325 242 L325 242 Z M164 700 C142 674 135 646 135 612 C135 599 147 580 162 580 C184 580 185 596 190 611 C192 623 212 670 241 670 C253 670 270 642 279 627 C290 610 300 582 335 582 C346 582 357 584 365 588 C400 608 442 660 442 703 C442 718 432 736 414 736 C371 736 379 650 333 650 C324 650 311 674 303 688 C290 710 277 738 251 738 C243 738 188 727 164 700 L164 700 Z " />
<glyph glyph-name="adieresis" unicode="&#xe4;" horiz-adv-x="536" d="M504 92 C495 147 482 208 462 260 C437 321 418 378 396 438 C381 479 362 527 327 548 C309 560 292 557 273 548 C251 538 241 529 224 508 C200 481 195 451 180 419 C160 381 146 348 129 309 C114 275 98 237 87 200 C74 160 53 124 44 85 C40 69 34 40 34 16 C34 -4 38 -19 52 -27 C96 -51 114 23 134 70 C142 89 153 109 159 127 C197 130 232 140 269 145 C299 149 327 153 358 155 C371 156 379 158 393 158 C397 145 401 131 403 116 C411 87 432 16 467 12 C508 6 512 53 504 92 L504 92 Z M325 242 C279 237 238 220 194 220 C198 229 203 244 206 253 C231 325 250 369 287 431 C294 419 294 419 300 407 C312 385 322 366 332 343 C342 320 358 274 367 247 C348 246 335 243 325 242 L325 242 Z M412 669 C403 674 394 670 383 668 C342 647 328 648 328 617 C328 594 340 579 363 579 C375 579 378 585 387 591 C392 597 429 611 429 646 C429 656 420 667 412 669 L412 669 Z M266 649 C258 655 249 663 238 663 C183 663 171 623 172 626 C171 621 171 617 171 611 C171 590 192 579 210 579 C234 584 273 621 273 638 C273 642 270 648 266 649 L266 649 Z " />
<glyph glyph-name="aring" unicode="&#xe5;" horiz-adv-x="536" d="M378 696 C366 713 344 717 326 724 C320 725 312 726 305 726 C260 725 206 696 184 656 C168 627 185 592 202 568 C214 551 230 540 248 534 C240 527 233 519 224 508 C200 481 195 451 180 419 C160 381 146 348 129 309 C114 275 98 237 87 200 C74 160 53 124 44 85 C40 69 34 40 34 16 C34 -4 38 -19 52 -27 C96 -51 114 23 134 70 C142 89 153 109 159 127 C197 130 232 140 269 145 C299 149 327 153 358 155 C371 156 379 158 393 158 C397 145 401 131 403 116 C411 87 432 16 467 12 C508 6 512 53 504 92 C495 147 482 208 462 260 C437 321 418 378 396 438 C382 475 365 517 337 541 C347 548 356 556 365 566 C386 587 397 614 397 640 C397 659 391 678 378 696 L378 696 Z M325 242 C279 237 238 220 194 220 C198 229 203 244 206 253 C231 325 250 369 287 431 L300 407 C312 385 322 366 332 343 C342 320 358 274 367 247 C348 246 335 243 325 242 L325 242 Z M325 621 C317 589 287 576 260 597 C247 606 242 620 251 634 C259 646 278 656 293 659 C296 660 329 667 329 659 C329 646 329 633 325 621 L325 621 Z " />
<glyph glyph-name="ae" unicode="&#xe6;" horiz-adv-x="751" d="M135 72 C173 69 206 76 242 79 C265 79 289 78 312 81 L312 72 C312 48 316 23 333 9 C348 -3 368 -6 384 -6 C412 -6 423 -6 440 -5 C513 -1 587 6 666 22 C699 31 722 32 731 71 C737 94 718 100 710 102 C703 105 694 107 677 105 C612 96 544 89 471 89 C445 89 428 90 404 93 C401 123 413 159 414 189 C425 190 434 193 443 194 C484 203 516 213 558 213 C581 215 590 215 612 216 C634 217 678 221 697 231 C712 239 718 251 719 269 C719 286 694 296 679 297 C657 300 638 300 620 300 C598 300 577 300 550 299 C520 299 485 296 456 292 C445 291 430 290 418 288 L418 331 C418 362 421 392 421 438 C447 438 470 438 491 437 C516 436 533 438 559 438 C585 440 600 438 628 441 C647 442 678 445 697 454 C710 460 721 472 719 490 C718 504 695 521 683 524 C668 528 651 528 626 529 C602 530 590 528 566 528 C515 526 463 529 413 531 C401 531 377 535 368 528 C365 525 362 523 360 520 C339 507 327 483 310 464 C289 438 269 408 249 382 C227 353 170 274 150 244 C114 194 78 141 46 89 C28 62 -12 -2 23 -24 C35 -30 63 -20 74 -14 C90 -4 103 22 112 39 L131 72 L135 72 Z M215 200 C244 242 297 313 336 366 C336 339 334 307 334 288 C332 252 326 218 322 182 C285 176 247 175 210 171 C204 170 198 169 192 169 L215 200 Z " />
<glyph glyph-name="ccedilla" unicode="&#xe7;" horiz-adv-x="581" d="M400 -42 C397 -34 394 -27 390 -20 C466 -2 548 34 548 89 C548 107 533 122 510 122 C484 122 461 102 439 92 C397 73 344 63 289 63 C181 63 130 130 130 223 C130 278 159 351 210 397 C287 453 355 460 387 469 C425 456 431 403 483 403 C507 403 516 422 516 440 C516 518 416 560 361 560 C347 560 332 558 315 552 C264 536 225 515 183 484 C125 435 67 366 52 295 C44 261 39 223 39 191 C42 55 156 -33 294 -33 L296 -36 C301 -45 321 -60 321 -71 C321 -80 296 -97 288 -99 C276 -103 272 -99 262 -95 C240 -86 228 -80 206 -86 C188 -91 158 -112 171 -135 C182 -156 213 -169 232 -174 C285 -188 351 -165 387 -117 C404 -95 409 -68 400 -42 L400 -42 Z " />
<glyph glyph-name="egrave" unicode="&#xe8;" horiz-adv-x="503" d="M466 71 C472 94 453 100 445 102 C438 105 429 107 412 105 C347 96 279 89 206 89 C180 89 163 90 139 93 C136 123 148 159 149 189 C160 190 169 193 178 194 C219 203 251 213 293 213 C316 215 325 215 347 216 C369 217 413 221 432 231 C447 239 453 251 454 269 C454 286 429 296 414 297 C392 300 373 300 355 300 C333 300 312 300 285 299 C255 299 220 296 191 292 C180 291 165 290 153 288 C153 299 153 314 153 331 C153 362 156 392 156 438 C182 438 205 438 226 437 C251 436 268 438 294 438 C320 440 335 438 363 441 C382 442 413 445 432 454 C445 460 456 472 454 490 C453 504 430 521 418 524 C403 528 386 528 361 529 C337 530 325 528 301 528 C250 526 198 529 148 531 C136 531 112 535 103 528 C88 516 78 499 76 477 C74 455 72 423 72 400 C72 372 70 316 69 288 C66 231 54 175 50 116 C48 103 47 88 47 72 C47 48 51 23 68 9 C83 -3 103 -6 119 -6 C147 -6 158 -6 175 -5 C248 -1 322 6 401 22 C434 31 457 32 466 71 L466 71 Z M204 609 C232 596 287 580 314 567 C332 559 358 554 371 570 C376 576 380 587 373 594 C366 605 351 614 340 620 C306 640 245 664 206 667 C195 668 174 671 165 663 C157 656 155 649 161 641 C172 625 188 616 204 609 L204 609 Z " />
<glyph glyph-name="eacute" unicode="&#xe9;" horiz-adv-x="503" d="M466 71 C457 32 434 31 401 22 C322 6 248 -1 175 -5 C158 -6 147 -6 119 -6 C103 -6 83 -3 68 9 C51 23 47 48 47 72 C47 88 48 103 50 116 C54 175 66 231 69 288 C70 316 72 372 72 400 C72 423 74 455 76 477 C78 499 88 516 103 528 C112 535 136 531 148 531 C198 529 250 526 301 528 C325 528 337 530 361 529 C386 528 403 528 418 524 C430 521 453 504 454 490 C456 472 445 460 432 454 C413 445 382 442 363 441 C335 438 320 440 294 438 C268 438 251 436 226 437 C205 438 182 438 156 438 C156 392 153 362 153 331 C153 314 153 299 153 288 C165 290 180 291 191 292 C220 296 255 299 285 299 C312 300 333 300 355 300 C373 300 392 300 414 297 C429 296 454 286 454 269 C453 251 447 239 432 231 C413 221 369 217 347 216 C325 215 316 215 293 213 C251 213 219 203 178 194 C169 193 160 190 149 189 C148 159 136 123 139 93 C163 90 180 89 206 89 C279 89 347 96 412 105 C429 107 438 105 445 102 C453 100 472 94 466 71 L466 71 Z M233 633 C217 625 200 614 190 600 C184 591 186 583 194 577 C203 569 224 572 235 573 C274 577 335 600 369 620 C380 626 394 635 402 646 C409 655 405 664 400 670 C387 686 361 680 343 673 C316 660 261 646 233 633 L233 633 Z " />
<glyph glyph-name="ecircumflex" unicode="&#xea;" horiz-adv-x="503" d="M466 71 C457 32 434 31 401 22 C322 6 248 -1 175 -5 C158 -6 147 -6 119 -6 C103 -6 83 -3 68 9 C51 23 47 48 47 72 C47 88 48 103 50 116 C54 175 66 231 69 288 C70 316 72 372 72 400 C72 423 74 455 76 477 C78 499 88 516 103 528 C112 535 136 531 148 531 C198 529 250 526 301 528 C325 528 337 530 361 529 C386 528 403 528 418 524 C430 521 453 504 454 490 C456 472 445 460 432 454 C413 445 382 442 363 441 C335 438 320 440 294 438 C268 438 251 436 226 437 C205 438 182 438 156 438 C156 392 153 362 153 331 C153 314 153 299 153 288 C165 290 180 291 191 292 C220 296 255 299 285 299 C312 300 333 300 355 300 C373 300 392 300 414 297 C429 296 454 286 454 269 C453 251 447 239 432 231 C413 221 369 217 347 216 C325 215 316 215 293 213 C251 213 219 203 178 194 C169 193 160 190 149 189 C148 159 136 123 139 93 C163 90 180 89 206 89 C279 89 347 96 412 105 C429 107 438 105 445 102 C453 100 472 94 466 71 L466 71 Z M376 628 C348 656 300 709 258 709 C208 709 135 616 120 594 C117 590 115 587 115 584 C115 577 128 566 141 566 C195 566 220 641 264 652 C305 627 334 568 370 568 C385 568 388 579 388 590 C388 605 386 615 376 628 L376 628 Z " />
<glyph glyph-name="edieresis" unicode="&#xeb;" horiz-adv-x="503" d="M466 71 C472 94 453 100 445 102 C438 105 429 107 412 105 C347 96 279 89 206 89 C180 89 163 90 139 93 C136 123 148 159 149 189 C160 190 169 193 178 194 C219 203 251 213 293 213 C316 215 325 215 347 216 C369 217 413 221 432 231 C447 239 453 251 454 269 C454 286 429 296 414 297 C392 300 373 300 355 300 C333 300 312 300 285 299 C255 299 220 296 191 292 C180 291 165 290 153 288 C153 299 153 314 153 331 C153 362 156 392 156 438 C182 438 205 438 226 437 C251 436 268 438 294 438 C320 440 335 438 363 441 C382 442 413 445 432 454 C445 460 456 472 454 490 C453 504 430 521 418 524 C403 528 386 528 361 529 C337 530 325 528 301 528 C250 526 198 529 148 531 C136 531 112 535 103 528 C88 516 78 499 76 477 C74 455 72 423 72 400 C72 372 70 316 69 288 C66 231 54 175 50 116 C48 103 47 88 47 72 C47 48 51 23 68 9 C83 -3 103 -6 119 -6 C147 -6 158 -6 175 -5 C248 -1 322 6 401 22 C434 31 457 32 466 71 L466 71 Z M394 650 C385 655 376 651 365 649 C324 628 310 629 310 598 C310 575 322 560 345 560 C357 560 360 566 369 572 C374 578 411 592 411 627 C411 637 402 648 394 650 L394 650 Z M248 630 C240 636 231 644 220 644 C165 644 153 604 154 607 C153 602 153 598 153 592 C153 571 174 560 192 560 C216 565 255 602 255 619 C255 623 252 629 248 630 L248 630 Z " />
<glyph glyph-name="igrave" unicode="&#xec;" horiz-adv-x="195" d="M61 392 C59 357 58 323 57 288 C53 233 49 178 49 122 C49 83 48 49 63 14 C72 -8 89 -21 109 -9 C133 5 140 36 140 69 C140 94 136 120 134 141 C133 166 131 191 132 216 C133 246 136 275 137 305 C138 352 141 398 144 444 C145 460 149 480 145 497 C142 507 134 529 127 535 C118 544 98 537 89 530 C57 507 61 432 61 392 L61 392 Z M34 607 C62 594 117 578 144 565 C162 557 188 552 201 568 C206 574 210 585 203 592 C196 603 181 612 170 618 C136 638 75 662 36 665 C25 666 4 669 -5 661 C-13 654 -15 647 -9 639 C2 623 18 614 34 607 L34 607 Z " />
<glyph glyph-name="iacute" unicode="&#xed;" horiz-adv-x="195" d="M61 392 C59 357 58 323 57 288 C53 233 49 178 49 122 C49 83 48 49 63 14 C72 -8 89 -21 109 -9 C133 5 140 36 140 69 C140 94 136 120 134 141 C133 166 131 191 132 216 C133 246 136 275 137 305 C138 352 141 398 144 444 C145 460 149 480 145 497 C142 507 134 529 127 535 C118 544 98 537 89 530 C57 507 61 432 61 392 L61 392 Z M34 635 C18 627 1 616 -9 602 C-15 593 -13 585 -5 579 C4 571 25 574 36 575 C75 579 136 602 170 622 C181 628 195 637 203 648 C210 657 206 666 201 672 C188 688 162 682 144 675 C117 662 62 648 34 635 L34 635 Z " />
<glyph glyph-name="icircumflex" unicode="&#xee;" horiz-adv-x="195" d="M61 392 C59 357 58 323 57 288 C53 233 49 178 49 122 C49 83 48 49 63 14 C72 -8 89 -21 109 -9 C133 5 140 36 140 69 C140 94 136 120 134 141 C133 166 131 191 132 216 C133 246 136 275 137 305 C138 352 141 398 144 444 C145 460 149 480 145 497 C142 507 134 529 127 535 C118 544 98 537 89 530 C57 507 61 432 61 392 L61 392 Z M222 588 C194 616 146 669 104 669 C54 669 -19 576 -34 554 C-37 550 -39 547 -39 544 C-39 537 -26 526 -13 526 C41 526 66 601 110 612 C151 587 180 528 216 528 C231 528 234 539 234 550 C234 565 232 575 222 588 L222 588 Z " />
<glyph glyph-name="idieresis" unicode="&#xef;" horiz-adv-x="195" d="M61 392 C59 357 58 323 57 288 C53 233 49 178 49 122 C49 83 48 49 63 14 C72 -8 89 -21 109 -9 C133 5 140 36 140 69 C140 94 136 120 134 141 C133 166 131 191 132 216 C133 246 136 275 137 305 C138 352 141 398 144 444 C145 460 149 480 145 497 C142 507 134 529 127 535 C118 544 98 537 89 530 C57 507 61 432 61 392 L61 392 Z M218 646 C209 651 200 647 189 645 C148 624 134 625 134 594 C134 571 146 556 169 556 C181 556 184 562 193 568 C198 574 235 588 235 623 C235 633 226 644 218 646 L218 646 Z M72 626 C64 632 55 640 44 640 C-11 640 -23 600 -22 603 C-23 598 -23 594 -23 588 C-23 567 -2 556 16 556 C40 561 79 598 79 615 C79 619 76 625 72 626 L72 626 Z " />
<glyph glyph-name="eth" unicode="&#xf0;" horiz-adv-x="583" d="M549 334 C542 369 528 410 510 437 C475 483 421 533 365 539 C346 543 313 546 281 546 C249 546 215 543 196 538 C169 529 119 526 101 503 C90 486 94 467 95 449 C96 425 96 401 100 376 C102 351 106 326 109 301 C100 301 92 300 83 300 C67 300 50 300 36 288 C23 277 12 228 32 221 C44 216 61 214 74 213 C85 212 99 212 113 212 C114 173 119 122 118 88 C118 71 114 53 114 35 C114 12 121 -10 148 -17 C166 -22 184 -18 202 -13 C288 9 343 39 417 81 C473 116 512 165 533 220 C540 238 545 259 549 278 C551 296 551 316 549 334 L549 334 Z M257 326 C235 321 214 316 192 312 C189 376 183 449 183 449 C197 453 253 455 297 455 C363 455 454 422 465 366 C476 294 449 238 401 186 C328 107 200 83 200 83 C200 83 193 160 192 218 C218 222 243 228 264 238 C275 242 290 248 299 258 C315 274 321 310 296 320 C283 326 272 328 257 326 L257 326 Z " />
<glyph glyph-name="ntilde" unicode="&#xf1;" horiz-adv-x="585" d="M67 345 C67 261 70 230 72 155 C73 125 69 98 71 69 C71 37 76 -10 115 -19 C156 -28 161 34 160 61 C159 110 160 155 157 206 C154 264 157 316 151 369 C172 345 194 309 209 287 C229 260 244 234 266 211 C289 184 306 153 329 125 C349 102 364 78 382 53 C407 17 417 -28 468 -25 C487 -23 494 0 496 18 C501 48 505 69 508 100 C514 182 518 260 527 343 C531 379 530 414 531 449 C532 472 531 493 523 515 C517 534 500 544 483 544 C469 544 455 537 450 520 C443 499 446 476 444 454 C436 353 430 254 420 160 C389 193 351 235 331 269 C302 317 270 360 239 402 C226 419 212 442 199 460 C187 475 178 490 166 503 C142 529 99 570 67 539 C50 524 45 509 45 493 C45 459 67 419 67 345 L67 345 Z M181 660 C159 634 152 606 152 572 C152 559 164 540 179 540 C201 540 202 556 207 571 C209 583 229 630 258 630 C270 630 287 602 296 587 C307 570 317 542 352 542 C363 542 374 544 382 548 C417 568 459 620 459 663 C459 678 449 696 431 696 C388 696 396 610 350 610 C341 610 328 634 320 648 C307 670 294 698 268 698 C260 698 205 687 181 660 L181 660 Z " />
<glyph glyph-name="ograve" unicode="&#xf2;" horiz-adv-x="673" d="M635 335 C630 354 624 374 618 393 C606 431 587 468 560 497 C535 520 500 541 471 541 C445 542 420 546 394 543 C376 541 362 547 345 550 C328 552 308 547 291 543 C236 533 148 481 116 440 C93 410 74 379 58 343 C43 308 35 277 39 238 C41 220 44 202 46 184 C49 166 56 145 61 127 C70 93 88 67 114 43 C125 31 138 18 154 12 C215 -23 254 -23 315 -23 C394 -23 476 1 534 59 C561 87 586 119 603 155 C624 200 632 235 637 277 C640 296 639 317 635 335 L635 335 Z M531 224 C512 175 447 107 402 92 C380 84 359 79 337 75 C303 70 269 72 234 80 C165 94 125 168 128 238 C136 304 165 329 204 374 C224 396 255 420 282 433 C299 440 318 444 336 449 C348 451 359 455 372 453 C385 450 397 445 410 442 C441 437 474 440 506 425 C561 401 549 261 531 224 L531 224 Z M278 630 C306 617 361 601 388 588 C406 580 432 575 445 591 C450 597 454 608 447 615 C440 626 425 635 414 641 C380 661 319 685 280 688 C269 689 248 692 239 684 C231 677 229 670 235 662 C246 646 262 637 278 630 L278 630 Z " />
<glyph glyph-name="oacute" unicode="&#xf3;" horiz-adv-x="673" d="M635 335 C630 354 624 374 618 393 C606 431 587 468 560 497 C535 520 500 541 471 541 C445 542 420 546 394 543 C376 541 362 547 345 550 C328 552 308 547 291 543 C236 533 148 481 116 440 C93 410 74 379 58 343 C43 308 35 277 39 238 C41 220 44 202 46 184 C49 166 56 145 61 127 C70 93 88 67 114 43 C125 31 138 18 154 12 C215 -23 254 -23 315 -23 C394 -23 476 1 534 59 C561 87 586 119 603 155 C624 200 632 235 637 277 C640 296 639 317 635 335 L635 335 Z M531 224 C512 175 447 107 402 92 C380 84 359 79 337 75 C303 70 269 72 234 80 C165 94 125 168 128 238 C136 304 165 329 204 374 C224 396 255 420 282 433 C299 440 318 444 336 449 C348 451 359 455 372 453 C385 450 397 445 410 442 C441 437 474 440 506 425 C561 401 549 261 531 224 L531 224 Z M303 646 C287 638 270 627 260 613 C254 604 256 596 264 590 C273 582 294 585 305 586 C344 590 405 613 439 633 C450 639 464 648 472 659 C479 668 475 677 470 683 C457 699 431 693 413 686 C386 673 331 659 303 646 L303 646 Z " />
<glyph glyph-name="ocircumflex" unicode="&#xf4;" horiz-adv-x="673" d="M635 335 C630 354 624 374 618 393 C606 431 587 468 560 497 C535 520 500 541 471 541 C445 542 420 546 394 543 C376 541 362 547 345 550 C328 552 308 547 291 543 C236 533 148 481 116 440 C93 410 74 379 58 343 C43 308 35 277 39 238 C41 220 44 202 46 184 C49 166 56 145 61 127 C70 93 88 67 114 43 C125 31 138 18 154 12 C215 -23 254 -23 315 -23 C394 -23 476 1 534 59 C561 87 586 119 603 155 C624 200 632 235 637 277 C640 296 639 317 635 335 L635 335 Z M531 224 C512 175 447 107 402 92 C380 84 359 79 337 75 C303 70 269 72 234 80 C165 94 125 168 128 238 C136 304 165 329 204 374 C224 396 255 420 282 433 C299 440 318 444 336 449 C348 451 359 455 372 453 C385 450 397 445 410 442 C441 437 474 440 506 425 C561 401 549 261 531 224 L531 224 Z M474 634 C446 662 398 715 356 715 C306 715 233 622 218 600 C215 596 213 593 213 590 C213 583 226 572 239 572 C293 572 318 647 362 658 C403 633 432 574 468 574 C483 574 486 585 486 596 C486 611 484 621 474 634 L474 634 Z " />
<glyph glyph-name="otilde" unicode="&#xf5;" horiz-adv-x="673" d="M635 335 C630 354 624 374 618 393 C606 431 587 468 560 497 C535 520 500 541 471 541 C445 542 420 546 394 543 C376 541 362 547 345 550 C328 552 308 547 291 543 C236 533 148 481 116 440 C93 410 74 379 58 343 C43 308 35 277 39 238 C41 220 44 202 46 184 C49 166 56 145 61 127 C70 93 88 67 114 43 C125 31 138 18 154 12 C215 -23 254 -23 315 -23 C394 -23 476 1 534 59 C561 87 586 119 603 155 C624 200 632 235 637 277 C640 296 639 317 635 335 L635 335 Z M531 224 C512 175 447 107 402 92 C380 84 359 79 337 75 C303 70 269 72 234 80 C165 94 125 168 128 238 C136 304 165 329 204 374 C224 396 255 420 282 433 C299 440 318 444 336 449 C348 451 359 455 372 453 C385 450 397 445 410 442 C441 437 474 440 506 425 C561 401 549 261 531 224 L531 224 Z M228 696 C206 670 199 642 199 608 C199 595 211 576 226 576 C248 576 249 592 254 607 C256 619 276 666 305 666 C317 666 334 638 343 623 C354 606 364 578 399 578 C410 578 421 580 429 584 C464 604 506 656 506 699 C506 714 496 732 478 732 C435 732 443 646 397 646 C388 646 375 670 367 684 C354 706 341 734 315 734 C307 734 252 723 228 696 L228 696 Z " />
<glyph glyph-name="odieresis" unicode="&#xf6;" horiz-adv-x="673" d="M635 335 C630 354 624 374 618 393 C606 431 587 468 560 497 C535 520 500 541 471 541 C445 542 420 546 394 543 C376 541 362 547 345 550 C328 552 308 547 291 543 C236 533 148 481 116 440 C93 410 74 379 58 343 C43 308 35 277 39 238 C41 220 44 202 46 184 C49 166 56 145 61 127 C70 93 88 67 114 43 C125 31 138 18 154 12 C215 -23 254 -23 315 -23 C394 -23 476 1 534 59 C561 87 586 119 603 155 C624 200 632 235 637 277 C640 296 639 317 635 335 L635 335 Z M531 224 C512 175 447 107 402 92 C380 84 359 79 337 75 C303 70 269 72 234 80 C165 94 125 168 128 238 C136 304 165 329 204 374 C224 396 255 420 282 433 C299 440 318 444 336 449 C348 451 359 455 372 453 C385 450 397 445 410 442 C441 437 474 440 506 425 C561 401 549 261 531 224 L531 224 Z M480 669 C471 674 462 670 451 668 C410 647 396 648 396 617 C396 594 408 579 431 579 C443 579 446 585 455 591 C460 597 497 611 497 646 C497 656 488 667 480 669 L480 669 Z M334 649 C326 655 317 663 306 663 C251 663 239 623 240 626 C239 621 239 617 239 611 C239 590 260 579 278 579 C302 584 341 621 341 638 C341 642 338 648 334 649 L334 649 Z " />
<glyph glyph-name="divide" unicode="&#xf7;" horiz-adv-x="466" d="M76 220 C114 217 230 227 266 230 C304 231 343 229 378 241 C404 251 435 277 423 312 C415 334 400 345 380 340 C332 328 283 327 234 322 C207 318 98 318 72 314 C55 311 43 311 36 291 C22 248 48 223 76 220 L76 220 Z M280 445 C281 452 285 461 285 470 C285 487 269 500 253 500 C245 500 231 496 218 486 C211 482 170 442 170 418 C170 391 187 376 216 376 C259 376 271 417 280 445 L280 445 Z M247 175 C215 175 174 108 173 96 C173 72 184 46 212 46 C253 51 278 93 278 130 C278 147 257 175 247 175 L247 175 Z " />
<glyph glyph-name="oslash" unicode="&#xf8;" horiz-adv-x="673" d="M635 335 C630 354 624 374 618 393 C606 431 587 468 560 497 C550 505 540 513 529 520 C545 545 557 571 546 599 C537 619 522 622 502 612 C477 599 466 570 449 546 L446 542 C429 544 411 545 394 543 C376 541 362 547 345 550 C328 552 308 547 291 543 C236 533 148 481 116 440 C93 410 74 379 58 343 C43 308 35 277 39 238 L46 184 C49 166 56 145 61 127 C70 93 88 67 114 43 C124 32 135 20 149 14 C134 -18 118 -64 148 -80 C160 -85 187 -72 197 -65 C210 -55 220 -34 227 -17 C255 -23 282 -23 315 -23 C394 -23 476 1 534 59 C561 87 586 119 603 155 C624 200 632 235 637 277 C640 296 639 317 635 335 L635 335 Z M531 224 C512 175 447 107 402 92 C380 84 359 79 337 75 C315 72 293 71 270 73 C285 103 301 132 319 160 C344 204 425 348 476 434 C486 432 496 429 506 425 C561 401 549 261 531 224 L531 224 Z M128 238 C136 304 165 329 204 374 C224 396 255 420 282 433 C299 440 318 444 336 449 C348 451 359 455 372 453 C378 451 384 450 389 448 C359 396 266 227 250 198 C231 165 211 131 193 97 C149 126 125 183 128 238 L128 238 Z " />
<glyph glyph-name="ugrave" unicode="&#xf9;" horiz-adv-x="546" d="M153 304 C153 335 156 361 157 391 C159 428 165 504 117 516 C69 526 56 468 63 432 C67 412 68 396 68 374 C68 347 64 318 63 290 C62 251 60 213 60 175 C60 156 60 138 62 118 C66 70 107 19 151 -3 C166 -10 184 -13 204 -13 C235 -13 267 -6 294 -1 C345 8 409 27 434 75 C448 100 460 118 465 145 C475 178 477 216 482 251 C492 321 497 393 504 463 C505 486 504 507 488 524 C474 539 451 546 434 530 C416 513 411 491 412 468 C412 442 415 416 412 391 C408 331 406 270 391 212 C382 173 372 128 331 109 C307 97 281 96 257 91 C245 88 230 87 216 87 C201 87 186 88 177 94 C147 112 157 144 153 177 C152 194 153 217 153 234 C153 273 153 291 153 304 L153 304 Z M193 577 C221 564 276 548 303 535 C321 527 347 522 360 538 C365 544 369 555 362 562 C355 573 340 582 329 588 C295 608 234 632 195 635 C184 636 163 639 154 631 C146 624 144 617 150 609 C161 593 177 584 193 577 L193 577 Z " />
<glyph glyph-name="uacute" unicode="&#xfa;" horiz-adv-x="546" d="M153 304 C153 335 156 361 157 391 C159 428 165 504 117 516 C69 526 56 468 63 432 C67 412 68 396 68 374 C68 347 64 318 63 290 C62 251 60 213 60 175 C60 156 60 138 62 118 C66 70 107 19 151 -3 C166 -10 184 -13 204 -13 C235 -13 267 -6 294 -1 C345 8 409 27 434 75 C448 100 460 118 465 145 C475 178 477 216 482 251 C492 321 497 393 504 463 C505 486 504 507 488 524 C474 539 451 546 434 530 C416 513 411 491 412 468 C412 442 415 416 412 391 C408 331 406 270 391 212 C382 173 372 128 331 109 C307 97 281 96 257 91 C245 88 230 87 216 87 C201 87 186 88 177 94 C147 112 157 144 153 177 C152 194 153 217 153 234 C153 273 153 291 153 304 L153 304 Z M228 601 C212 593 195 582 185 568 C179 559 181 551 189 545 C198 537 219 540 230 541 C269 545 330 568 364 588 C375 594 389 603 397 614 C404 623 400 632 395 638 C382 654 356 648 338 641 C311 628 256 614 228 601 L228 601 Z " />
<glyph glyph-name="ucircumflex" unicode="&#xfb;" horiz-adv-x="546" d="M153 304 C153 335 156 361 157 391 C159 428 165 504 117 516 C69 526 56 468 63 432 C67 412 68 396 68 374 C68 347 64 318 63 290 C62 251 60 213 60 175 C60 156 60 138 62 118 C66 70 107 19 151 -3 C166 -10 184 -13 204 -13 C235 -13 267 -6 294 -1 C345 8 409 27 434 75 C448 100 460 118 465 145 C475 178 477 216 482 251 C492 321 497 393 504 463 C505 486 504 507 488 524 C474 539 451 546 434 530 C416 513 411 491 412 468 C412 442 415 416 412 391 C408 331 406 270 391 212 C382 173 372 128 331 109 C307 97 281 96 257 91 C245 88 230 87 216 87 C201 87 186 88 177 94 C147 112 157 144 153 177 C152 194 153 217 153 234 C153 273 153 291 153 304 L153 304 Z M392 610 C364 638 316 691 274 691 C224 691 151 598 136 576 C133 572 131 569 131 566 C131 559 144 548 157 548 C211 548 236 623 280 634 C321 609 350 550 386 550 C401 550 404 561 404 572 C404 587 402 597 392 610 L392 610 Z " />
<glyph glyph-name="udieresis" unicode="&#xfc;" horiz-adv-x="546" d="M153 304 C153 335 156 361 157 391 C159 428 165 504 117 516 C69 526 56 468 63 432 C67 412 68 396 68 374 C68 347 64 318 63 290 C62 251 60 213 60 175 C60 156 60 138 62 118 C66 70 107 19 151 -3 C166 -10 184 -13 204 -13 C235 -13 267 -6 294 -1 C345 8 409 27 434 75 C448 100 460 118 465 145 C475 178 477 216 482 251 C492 321 497 393 504 463 C505 486 504 507 488 524 C474 539 451 546 434 530 C416 513 411 491 412 468 C412 442 415 416 412 391 C408 331 406 270 391 212 C382 173 372 128 331 109 C307 97 281 96 257 91 C245 88 230 87 216 87 C201 87 186 88 177 94 C147 112 157 144 153 177 C152 194 153 217 153 234 C153 273 153 291 153 304 L153 304 Z M395 635 C386 640 377 636 366 634 C325 613 311 614 311 583 C311 560 323 545 346 545 C358 545 361 551 370 557 C375 563 412 577 412 612 C412 622 403 633 395 635 L395 635 Z M249 615 C241 621 232 629 221 629 C166 629 154 589 155 592 C154 587 154 583 154 577 C154 556 175 545 193 545 C217 550 256 587 256 604 C256 608 253 614 249 615 L249 615 Z " />
<glyph glyph-name="yacute" unicode="&#xfd;" horiz-adv-x="530" d="M468 436 C456 411 438 388 425 363 C415 341 403 321 393 297 C384 277 372 256 363 235 C346 198 324 147 312 111 C304 93 295 70 287 53 C275 26 250 -5 230 -18 C216 -28 203 -27 189 -18 C172 -6 168 1 171 21 C175 52 189 84 206 112 C213 127 224 138 230 154 C238 172 241 185 251 204 C210 242 165 275 133 319 C114 345 76 385 54 410 C34 433 17 495 44 511 C83 527 107 505 129 475 C149 449 186 394 207 371 C226 352 271 304 290 295 C313 343 335 389 363 431 C384 462 394 499 420 526 C432 539 438 551 459 551 C480 552 491 544 498 528 C512 495 484 463 468 436 L468 436 Z M212 572 C196 564 179 553 169 539 C163 530 165 522 173 516 C182 508 203 511 214 512 C253 516 314 539 348 559 C359 565 373 574 381 585 C388 594 384 603 379 609 C366 625 340 619 322 612 C295 599 240 585 212 572 L212 572 Z " />
<glyph glyph-name="thorn" unicode="&#xfe;" horiz-adv-x="500" d="M452 369 C437 396 402 411 374 422 C324 441 268 442 215 444 C187 444 165 436 143 436 C143 446 143 456 144 466 C147 495 142 566 96 560 C82 557 64 541 60 526 C55 503 58 477 58 453 C58 412 62 371 62 331 C62 286 60 239 59 194 C59 137 50 80 52 23 C52 10 55 -3 69 -9 C80 -16 102 -18 111 -9 C135 14 134 58 139 88 C142 97 143 106 143 115 C166 110 191 110 213 111 C245 112 272 118 302 127 C376 151 444 199 464 279 C471 306 466 348 452 369 L452 369 Z M373 274 C342 235 302 213 253 202 C230 197 204 197 181 200 C168 203 157 200 146 198 C144 203 144 209 143 215 C142 228 144 239 144 251 C144 337 144 341 144 344 C162 350 182 353 201 354 C240 358 368 342 391 310 C399 300 380 282 373 274 L373 274 Z " />
<glyph glyph-name="ydieresis" unicode="&#xff;" horiz-adv-x="530" d="M468 436 C484 463 512 495 498 528 C491 544 480 552 459 551 C438 551 432 539 420 526 C394 499 384 462 363 431 C335 389 313 343 290 295 C271 304 226 352 207 371 C186 394 149 449 129 475 C107 505 83 527 44 511 C17 495 34 433 54 410 C76 385 114 345 133 319 C165 275 210 242 251 204 C241 185 238 172 230 154 C224 138 213 127 206 112 C189 84 175 52 171 21 C168 1 172 -6 189 -18 C203 -27 216 -28 230 -18 C250 -5 275 26 287 53 C295 70 304 93 312 111 C324 147 346 198 363 235 C372 256 384 277 393 297 C403 321 415 341 425 363 C438 388 456 411 468 436 L468 436 Z M375 622 C366 627 357 623 346 621 C305 600 291 601 291 570 C291 547 303 532 326 532 C338 532 341 538 350 544 C355 550 392 564 392 599 C392 609 383 620 375 622 L375 622 Z M229 602 C221 608 212 616 201 616 C146 616 134 576 135 579 C134 574 134 570 134 564 C134 543 155 532 173 532 C197 537 236 574 236 591 C236 595 233 601 229 602 L229 602 Z " />
<glyph glyph-name="Amacron" unicode="&#x100;" horiz-adv-x="582" d="M541 101 C535 125 528 149 522 173 C507 237 489 297 466 358 C453 389 436 419 422 449 C410 476 398 504 380 528 C365 548 343 555 318 557 C290 560 274 543 255 521 C204 463 169 385 136 316 C123 287 34 115 34 31 C34 5 43 -13 65 -14 C89 -17 107 -5 116 19 C127 47 129 70 138 96 C141 103 144 111 146 118 C214 129 287 144 358 150 C379 153 405 153 431 159 C439 128 456 75 469 48 C482 23 500 8 517 8 C530 8 542 17 550 39 C556 58 547 80 541 101 L541 101 Z M332 246 C301 242 278 239 247 233 C229 230 211 228 193 225 C207 255 220 284 234 313 C251 347 291 423 316 449 C343 393 376 322 400 255 C372 253 352 249 332 246 L332 246 Z M170 585 C203 583 331 593 362 596 C394 597 428 595 458 604 C480 612 507 631 497 658 C490 675 477 684 460 679 C418 671 276 664 234 661 C211 657 189 660 166 657 C152 655 141 655 135 639 C123 607 146 587 170 585 L170 585 Z " />
<glyph glyph-name="amacron" unicode="&#x101;" horiz-adv-x="536" d="M504 92 C495 147 482 208 462 260 C437 321 418 378 396 438 C381 479 362 527 327 548 C309 560 292 557 273 548 C251 538 241 529 224 508 C200 481 195 451 180 419 C160 381 146 348 129 309 C114 275 98 237 87 200 C74 160 53 124 44 85 C40 69 34 40 34 16 C34 -4 38 -19 52 -27 C96 -51 114 23 134 70 C142 89 153 109 159 127 C197 130 232 140 269 145 C299 149 327 153 358 155 C371 156 379 158 393 158 C397 145 401 131 403 116 C411 87 432 16 467 12 C508 6 512 53 504 92 L504 92 Z M325 242 C279 237 238 220 194 220 C198 229 203 244 206 253 C231 325 250 369 287 431 C294 419 294 419 300 407 C312 385 322 366 332 343 C342 320 358 274 367 247 C348 246 335 243 325 242 L325 242 Z M123 574 C156 572 284 582 315 585 C347 586 381 584 411 593 C433 601 460 620 450 647 C443 664 430 673 413 668 C371 660 229 653 187 650 C164 646 142 649 119 646 C105 644 94 644 88 628 C76 596 99 576 123 574 L123 574 Z " />
<glyph glyph-name="Abreve" unicode="&#x102;" horiz-adv-x="582" d="M541 101 C535 125 528 149 522 173 C507 237 489 297 466 358 C453 389 436 419 422 449 C410 476 398 504 380 528 C365 548 343 555 318 557 C290 560 274 543 255 521 C204 463 169 385 136 316 C123 287 34 115 34 31 C34 5 43 -13 65 -14 C89 -17 107 -5 116 19 C127 47 129 70 138 96 C141 103 144 111 146 118 C214 129 287 144 358 150 C379 153 405 153 431 159 C439 128 456 75 469 48 C482 23 500 8 517 8 C530 8 542 17 550 39 C556 58 547 80 541 101 L541 101 Z M332 246 C301 242 278 239 247 233 C229 230 211 228 193 225 C207 255 220 284 234 313 C251 347 291 423 316 449 C343 393 376 322 400 255 C372 253 352 249 332 246 L332 246 Z M265 592 C277 587 297 584 318 584 C370 584 419 607 425 662 C428 674 428 695 420 706 C414 718 393 720 383 711 C372 702 372 685 368 672 C364 656 331 645 314 640 C300 637 282 641 271 654 C264 667 271 686 277 698 C280 706 283 707 278 715 C273 720 266 725 260 725 C245 725 233 713 225 704 C216 693 216 677 216 663 C216 631 235 605 265 592 L265 592 Z " />
<glyph glyph-name="abreve" unicode="&#x103;" horiz-adv-x="536" d="M504 92 C495 147 482 208 462 260 C437 321 418 378 396 438 C381 479 362 527 327 548 C309 560 292 557 273 548 C251 538 241 529 224 508 C200 481 195 451 180 419 C160 381 146 348 129 309 C114 275 98 237 87 200 C74 160 53 124 44 85 C40 69 34 40 34 16 C34 -4 38 -19 52 -27 C96 -51 114 23 134 70 C142 89 153 109 159 127 C197 130 232 140 269 145 C299 149 327 153 358 155 C371 156 379 158 393 158 C397 145 401 131 403 116 C411 87 432 16 467 12 C508 6 512 53 504 92 L504 92 Z M325 242 C279 237 238 220 194 220 C198 229 203 244 206 253 C231 325 250 369 287 431 C294 419 294 419 300 407 C312 385 322 366 332 343 C342 320 358 274 367 247 C348 246 335 243 325 242 L325 242 Z M249 592 C261 587 281 584 302 584 C354 584 403 607 409 662 C412 674 412 695 404 706 C398 718 377 720 367 711 C356 702 356 685 352 672 C348 656 315 645 298 640 C284 637 266 641 255 654 C248 667 255 686 261 698 C264 706 267 707 262 715 C257 720 250 725 244 725 C229 725 217 713 209 704 C200 693 200 677 200 663 C200 631 219 605 249 592 L249 592 Z " />
<glyph glyph-name="Aogonek" unicode="&#x104;" horiz-adv-x="582" d="M458 58 C408 19 382 -25 388 -87 C392 -151 454 -176 510 -166 C532 -162 561 -149 577 -132 C591 -119 605 -88 594 -71 C579 -49 555 -56 535 -66 C516 -75 492 -88 471 -85 C472 -50 490 -25 512 1 L518 8 C531 8 542 18 550 39 C556 58 547 80 541 101 L522 173 C507 237 489 297 466 358 C453 389 436 419 422 449 C410 476 398 504 380 528 C365 548 343 555 318 557 C290 560 274 543 255 521 C204 463 169 385 136 316 C123 287 34 115 34 31 C34 5 43 -13 65 -14 C89 -17 107 -5 116 19 C127 47 129 70 138 96 C141 103 144 111 146 118 C214 129 287 144 358 150 C379 153 405 153 431 159 C438 133 451 90 463 62 L458 58 Z M332 246 C301 242 278 239 247 233 L193 225 L234 313 C251 347 291 423 316 449 C343 393 376 322 400 255 C372 253 352 249 332 246 L332 246 Z " />
<glyph glyph-name="aogonek" unicode="&#x105;" horiz-adv-x="536" d="M413 61 C363 22 337 -22 343 -84 C347 -148 409 -173 465 -163 C487 -159 516 -146 532 -129 C546 -116 560 -85 549 -68 C534 -46 510 -53 490 -63 C471 -72 447 -85 426 -82 C427 -47 445 -22 467 4 L473 11 C508 11 511 55 504 92 C495 147 482 208 462 260 C437 321 418 378 396 438 C381 479 362 527 327 548 C309 560 292 557 273 548 C251 538 241 529 224 508 C200 481 195 451 180 419 C160 381 146 348 129 309 C114 275 98 237 87 200 C74 160 53 124 44 85 C40 69 34 40 34 16 C34 -4 38 -19 52 -27 C96 -51 114 23 134 70 C142 89 153 109 159 127 C197 130 232 140 269 145 C299 149 327 153 358 155 C371 156 379 158 393 158 C397 145 401 131 403 116 C406 104 412 85 419 66 C417 64 415 62 413 61 L413 61 Z M325 242 C279 237 238 220 194 220 C198 229 203 244 206 253 C231 325 250 369 287 431 L300 407 C312 385 322 366 332 343 C342 320 358 274 367 247 C348 246 335 243 325 242 L325 242 Z " />
<glyph glyph-name="Cacute" unicode="&#x106;" horiz-adv-x="552" d="M412 553 C397 559 376 561 357 561 C316 561 283 551 251 537 C193 513 138 472 103 422 C76 381 44 341 40 292 C39 278 37 264 37 250 C37 211 44 169 58 133 C74 89 115 43 158 13 C199 -16 255 -19 302 -18 C352 -17 403 -8 442 16 C459 27 476 45 490 58 C515 83 534 144 490 155 C472 160 465 147 454 138 C408 103 372 71 312 71 C286 72 252 74 227 81 C194 92 167 111 150 140 C130 173 121 220 125 255 C128 290 143 322 159 353 C171 376 200 402 218 422 C233 434 283 460 302 467 C319 473 365 482 380 475 C420 454 408 450 430 427 C441 416 472 410 483 415 C523 436 499 498 473 519 C452 535 437 546 412 553 L412 553 Z M265 642 C249 634 232 623 222 609 C216 600 218 592 226 586 C235 578 256 581 267 582 C306 586 367 609 401 629 C412 635 426 644 434 655 C441 664 437 673 432 679 C419 695 393 689 375 682 C348 669 293 655 265 642 L265 642 Z " />
<glyph glyph-name="cacute" unicode="&#x107;" horiz-adv-x="581" d="M294 -33 C156 -33 42 55 39 191 C39 223 44 261 52 295 C67 366 125 435 183 484 C225 515 264 536 315 552 C332 558 347 560 361 560 C416 560 516 518 516 440 C516 422 507 403 483 403 C431 403 425 456 387 469 C355 460 287 453 210 397 C159 351 130 278 130 223 C130 130 181 63 289 63 C344 63 397 73 439 92 C461 102 484 122 510 122 C533 122 548 107 548 89 C548 7 366 -33 294 -33 L294 -33 Z M283 651 C267 643 250 632 240 618 C234 609 236 601 244 595 C253 587 274 590 285 591 C324 595 385 618 419 638 C430 644 444 653 452 664 C459 673 455 682 450 688 C437 704 411 698 393 691 C366 678 311 664 283 651 L283 651 Z " />
<glyph glyph-name="Ccaron" unicode="&#x10c;" horiz-adv-x="552" d="M412 553 C397 559 376 561 357 561 C316 561 283 551 251 537 C193 513 138 472 103 422 C76 381 44 341 40 292 C39 278 37 264 37 250 C37 211 44 169 58 133 C74 89 115 43 158 13 C199 -16 255 -19 302 -18 C352 -17 403 -8 442 16 C459 27 476 45 490 58 C515 83 534 144 490 155 C472 160 465 147 454 138 C408 103 372 71 312 71 C286 72 252 74 227 81 C194 92 167 111 150 140 C130 173 121 220 125 255 C128 290 143 322 159 353 C171 376 200 402 218 422 C233 434 283 460 302 467 C319 473 365 482 380 475 C420 454 408 450 430 427 C441 416 472 410 483 415 C523 436 499 498 473 519 C452 535 437 546 412 553 L412 553 Z M206 677 C227 645 295 595 321 595 C377 595 452 697 462 710 C465 714 466 717 466 720 C466 728 453 739 439 739 C401 739 375 697 355 681 C342 671 330 660 317 651 C279 676 246 737 212 737 C196 737 193 726 193 715 C193 699 194 690 206 677 L206 677 Z " />
<glyph glyph-name="ccaron" unicode="&#x10d;" horiz-adv-x="581" d="M294 -33 C156 -33 42 55 39 191 C39 223 44 261 52 295 C67 366 125 435 183 484 C225 515 264 536 315 552 C332 558 347 560 361 560 C416 560 516 518 516 440 C516 422 507 403 483 403 C431 403 425 456 387 469 C355 460 287 453 210 397 C159 351 130 278 130 223 C130 130 181 63 289 63 C344 63 397 73 439 92 C461 102 484 122 510 122 C533 122 548 107 548 89 C548 7 366 -33 294 -33 L294 -33 Z M226 667 C247 635 315 585 341 585 C397 585 472 687 482 700 C485 704 486 707 486 710 C486 718 473 729 459 729 C421 729 395 687 375 671 C362 661 350 650 337 641 C299 666 266 727 232 727 C216 727 213 716 213 705 C213 689 214 680 226 667 L226 667 Z " />
<glyph glyph-name="Dcaron" unicode="&#x10e;" horiz-adv-x="536" d="M486 420 C477 462 438 493 407 519 C380 541 345 548 310 556 C292 561 275 562 257 562 C237 562 217 560 195 556 C177 552 162 547 143 544 C127 543 109 546 90 542 C75 538 54 525 49 507 C45 491 50 477 52 462 C52 426 52 394 54 361 C60 305 59 250 59 197 C59 139 59 91 65 41 C67 26 66 9 78 -1 C92 -16 112 -19 132 -19 C146 -19 160 -17 174 -16 C194 -13 212 -6 230 -4 C248 -1 274 8 291 16 C337 34 396 67 425 119 C436 138 450 154 468 191 C489 231 493 265 498 309 C502 348 494 384 486 420 L486 420 Z M406 269 C389 206 352 147 284 114 C231 85 141 83 141 83 C141 83 146 195 147 238 C149 281 145 450 145 450 C173 451 268 478 268 478 C362 467 393 427 403 406 C409 393 415 370 415 337 C415 317 412 294 406 269 L406 269 Z M141 683 C162 651 230 601 256 601 C312 601 387 703 397 716 C400 720 401 723 401 726 C401 734 388 745 374 745 C336 745 310 703 290 687 C277 677 265 666 252 657 C214 682 181 743 147 743 C131 743 128 732 128 721 C128 705 129 696 141 683 L141 683 Z " />
<glyph glyph-name="dcaron" unicode="&#x10f;" horiz-adv-x="535" d="M504 334 C497 369 483 410 465 437 C430 483 376 533 320 539 C301 543 268 546 236 546 C204 546 170 543 151 538 C124 529 74 526 56 503 C45 486 49 467 50 449 C51 425 51 401 55 376 C60 328 68 281 68 231 C68 191 75 128 73 88 C73 71 69 53 69 35 C69 12 76 -10 103 -17 C121 -22 139 -18 157 -13 C243 9 298 39 372 81 C428 116 467 165 488 220 C495 238 500 259 504 278 C506 296 506 316 504 334 L504 334 Z M356 186 C283 107 155 83 155 83 C155 83 146 186 148 243 C151 300 138 449 138 449 C152 453 208 455 252 455 C318 455 409 422 420 366 C431 294 404 238 356 186 L356 186 Z M154 653 C175 621 243 571 269 571 C325 571 400 673 410 686 C413 690 414 693 414 696 C414 704 401 715 387 715 C349 715 323 673 303 657 C290 647 278 636 265 627 C227 652 194 713 160 713 C144 713 141 702 141 691 C141 675 142 666 154 653 L154 653 Z " />
<glyph glyph-name="Dcroat" unicode="&#x110;" horiz-adv-x="561" d="M512 420 C503 462 464 493 433 519 C406 541 371 548 336 556 C318 561 301 562 283 562 C263 562 243 560 221 556 C203 552 188 547 169 544 C153 543 135 546 116 542 C101 538 80 525 75 507 C71 491 76 477 78 462 C78 426 78 394 80 361 C82 340 84 319 84 298 L78 298 C62 298 45 298 31 286 C18 275 7 226 27 219 C39 214 56 212 69 211 C74 211 79 210 85 210 L85 197 C85 139 85 91 91 41 C93 26 92 9 104 -1 C118 -16 138 -19 158 -19 C172 -19 186 -17 200 -16 C220 -13 238 -6 256 -4 C274 -1 300 8 317 16 C363 34 422 67 451 119 C462 138 476 154 494 191 C515 231 519 265 524 309 C528 348 520 384 512 420 L512 420 Z M252 324 L173 308 C173 372 171 450 171 450 C199 451 294 478 294 478 C388 467 419 427 429 406 C435 393 441 370 441 337 C441 317 438 294 432 269 C415 206 378 147 310 114 C257 85 167 83 167 83 C167 83 171 164 172 214 C204 218 234 225 259 236 C270 240 285 246 294 256 C310 272 316 308 291 318 C278 324 267 326 252 324 L252 324 Z " />
<glyph glyph-name="dcroat" unicode="&#x111;" horiz-adv-x="583" d="M549 334 C542 369 528 410 510 437 C475 483 421 533 365 539 C346 543 313 546 281 546 C249 546 215 543 196 538 C169 529 119 526 101 503 C90 486 94 467 95 449 C96 425 96 401 100 376 C102 351 106 326 109 301 C100 301 92 300 83 300 C67 300 50 300 36 288 C23 277 12 228 32 221 C44 216 61 214 74 213 C85 212 99 212 113 212 C114 173 119 122 118 88 C118 71 114 53 114 35 C114 12 121 -10 148 -17 C166 -22 184 -18 202 -13 C288 9 343 39 417 81 C473 116 512 165 533 220 C540 238 545 259 549 278 C551 296 551 316 549 334 L549 334 Z M257 326 C235 321 214 316 192 312 C189 376 183 449 183 449 C197 453 253 455 297 455 C363 455 454 422 465 366 C476 294 449 238 401 186 C328 107 200 83 200 83 C200 83 193 160 192 218 C218 222 243 228 264 238 C275 242 290 248 299 258 C315 274 321 310 296 320 C283 326 272 328 257 326 L257 326 Z " />
<glyph glyph-name="Emacron" unicode="&#x112;" horiz-adv-x="487" d="M436 480 C414 460 395 464 369 466 C323 468 193 458 149 446 C150 423 143 405 143 379 C141 367 145 331 144 305 C208 313 271 319 333 319 C375 319 422 313 428 281 C432 262 427 248 412 241 C388 229 361 228 338 229 C311 230 205 220 185 216 C169 212 161 211 144 207 C145 184 145 171 143 147 C140 125 138 122 138 92 C180 96 297 103 339 111 C382 119 396 115 409 115 C423 115 445 112 450 96 C458 72 443 49 427 43 C404 32 375 23 350 22 C324 19 227 10 202 5 C176 0 156 -12 128 -13 C72 -16 53 32 55 84 C56 138 64 180 63 234 C61 272 60 326 60 376 C60 407 60 436 63 458 C64 480 66 515 85 528 C104 539 132 538 154 543 C210 554 271 556 326 556 C355 556 425 552 438 535 C453 515 457 498 436 480 L436 480 Z M109 594 C142 592 270 602 301 605 C333 606 367 604 397 613 C419 621 446 640 436 667 C429 684 416 693 399 688 C357 680 215 673 173 670 C150 666 128 669 105 666 C91 664 80 664 74 648 C62 616 85 596 109 594 L109 594 Z " />
<glyph glyph-name="emacron" unicode="&#x113;" horiz-adv-x="503" d="M466 71 C457 32 434 31 401 22 C322 6 248 -1 175 -5 C158 -6 147 -6 119 -6 C103 -6 83 -3 68 9 C51 23 47 48 47 72 C47 88 48 103 50 116 C54 175 66 231 69 288 C70 316 72 372 72 400 C72 423 74 455 76 477 C78 499 88 516 103 528 C112 535 136 531 148 531 C198 529 250 526 301 528 C325 528 337 530 361 529 C386 528 403 528 418 524 C430 521 453 504 454 490 C456 472 445 460 432 454 C413 445 382 442 363 441 C335 438 320 440 294 438 C268 438 251 436 226 437 C205 438 182 438 156 438 C156 392 153 362 153 331 C153 314 153 299 153 288 C165 290 180 291 191 292 C220 296 255 299 285 299 C312 300 333 300 355 300 C373 300 392 300 414 297 C429 296 454 286 454 269 C453 251 447 239 432 231 C413 221 369 217 347 216 C325 215 316 215 293 213 C251 213 219 203 178 194 C169 193 160 190 149 189 C148 159 136 123 139 93 C163 90 180 89 206 89 C279 89 347 96 412 105 C429 107 438 105 445 102 C453 100 472 94 466 71 L466 71 Z M106 574 C139 572 267 582 298 585 C330 586 364 584 394 593 C416 601 443 620 433 647 C426 664 413 673 396 668 C354 660 212 653 170 650 C147 646 125 649 102 646 C88 644 77 644 71 628 C59 596 82 576 106 574 L106 574 Z " />
<glyph glyph-name="Eogonek" unicode="&#x118;" horiz-adv-x="487" d="M436 480 C457 498 453 515 438 535 C425 552 355 556 326 556 C271 556 210 554 154 543 C132 538 104 539 85 528 C66 515 64 480 63 458 C60 436 60 407 60 376 C60 326 61 272 63 234 C64 180 56 138 55 84 C53 32 72 -16 128 -13 C156 -12 176 0 202 5 C219 8 268 13 307 17 C295 -6 290 -32 293 -63 C297 -127 359 -152 415 -142 C437 -138 466 -125 482 -108 C496 -95 510 -64 499 -47 C484 -25 460 -32 440 -42 C421 -51 397 -64 376 -61 C377 -26 395 -1 417 25 C425 35 439 45 445 59 C452 69 454 82 450 96 C445 112 423 115 409 115 C396 115 382 119 339 111 C297 103 180 96 138 92 C138 122 140 125 143 147 C145 171 145 184 144 207 L185 216 C205 220 311 230 338 229 C361 228 388 229 412 241 C427 248 432 262 428 281 C422 313 375 319 333 319 C271 319 208 313 144 305 C145 331 141 367 143 379 C143 405 150 423 149 446 C193 458 323 468 369 466 C395 464 414 460 436 480 L436 480 Z " />
<glyph glyph-name="eogonek" unicode="&#x119;" horiz-adv-x="503" d="M466 71 C472 94 453 100 445 102 C438 105 429 107 412 105 C347 96 279 89 206 89 C180 89 163 90 139 93 C136 123 148 159 149 189 C160 190 169 193 178 194 C219 203 251 213 293 213 C316 215 325 215 347 216 C369 217 413 221 432 231 C447 239 453 251 454 269 C454 286 429 296 414 297 C392 300 373 300 355 300 C333 300 312 300 285 299 C255 299 220 296 191 292 C180 291 165 290 153 288 L153 331 C153 362 156 392 156 438 C182 438 205 438 226 437 C251 436 268 438 294 438 C320 440 335 438 363 441 C382 442 413 445 432 454 C445 460 456 472 454 490 C453 504 430 521 418 524 C403 528 386 528 361 529 C337 530 325 528 301 528 C250 526 198 529 148 531 C136 531 112 535 103 528 C88 516 78 499 76 477 C74 455 72 423 72 400 C72 372 70 316 69 288 C66 231 54 175 50 116 C48 103 47 88 47 72 C47 48 51 23 68 9 C83 -3 103 -6 119 -6 C147 -6 158 -6 175 -5 C222 -2 269 1 318 8 C306 -15 302 -41 305 -71 C309 -135 371 -160 427 -150 C449 -146 478 -133 494 -116 C508 -103 522 -72 511 -55 C496 -33 472 -40 452 -50 C433 -59 409 -72 388 -69 C389 -34 407 -9 429 17 C435 25 445 33 452 43 C458 49 463 58 466 71 L466 71 Z " />
<glyph glyph-name="Ecaron" unicode="&#x11a;" horiz-adv-x="487" d="M436 480 C414 460 395 464 369 466 C323 468 193 458 149 446 C150 423 143 405 143 379 C141 367 145 331 144 305 C208 313 271 319 333 319 C375 319 422 313 428 281 C432 262 427 248 412 241 C388 229 361 228 338 229 C311 230 205 220 185 216 C169 212 161 211 144 207 C145 184 145 171 143 147 C140 125 138 122 138 92 C180 96 297 103 339 111 C382 119 396 115 409 115 C423 115 445 112 450 96 C458 72 443 49 427 43 C404 32 375 23 350 22 C324 19 227 10 202 5 C176 0 156 -12 128 -13 C72 -16 53 32 55 84 C56 138 64 180 63 234 C61 272 60 326 60 376 C60 407 60 436 63 458 C64 480 66 515 85 528 C104 539 132 538 154 543 C210 554 271 556 326 556 C355 556 425 552 438 535 C453 515 457 498 436 480 L436 480 Z M136 664 C157 632 225 582 251 582 C307 582 382 684 392 697 C395 701 396 704 396 707 C396 715 383 726 369 726 C331 726 305 684 285 668 C272 658 260 647 247 638 C209 663 176 724 142 724 C126 724 123 713 123 702 C123 686 124 677 136 664 L136 664 Z " />
<glyph glyph-name="ecaron" unicode="&#x11b;" horiz-adv-x="503" d="M466 71 C457 32 434 31 401 22 C322 6 248 -1 175 -5 C158 -6 147 -6 119 -6 C103 -6 83 -3 68 9 C51 23 47 48 47 72 C47 88 48 103 50 116 C54 175 66 231 69 288 C70 316 72 372 72 400 C72 423 74 455 76 477 C78 499 88 516 103 528 C112 535 136 531 148 531 C198 529 250 526 301 528 C325 528 337 530 361 529 C386 528 403 528 418 524 C430 521 453 504 454 490 C456 472 445 460 432 454 C413 445 382 442 363 441 C335 438 320 440 294 438 C268 438 251 436 226 437 C205 438 182 438 156 438 C156 392 153 362 153 331 C153 314 153 299 153 288 C165 290 180 291 191 292 C220 296 255 299 285 299 C312 300 333 300 355 300 C373 300 392 300 414 297 C429 296 454 286 454 269 C453 251 447 239 432 231 C413 221 369 217 347 216 C325 215 316 215 293 213 C251 213 219 203 178 194 C169 193 160 190 149 189 C148 159 136 123 139 93 C163 90 180 89 206 89 C279 89 347 96 412 105 C429 107 438 105 445 102 C453 100 472 94 466 71 L466 71 Z M160 650 C181 618 249 568 275 568 C331 568 406 670 416 683 C419 687 420 690 420 693 C420 701 407 712 393 712 C355 712 329 670 309 654 C296 644 284 633 271 624 C233 649 200 710 166 710 C150 710 147 699 147 688 C147 672 148 663 160 650 L160 650 Z " />
<glyph glyph-name="Imacron" unicode="&#x12a;" horiz-adv-x="467" d="M428 47 C429 36 428 13 420 5 C390 -28 231 -17 189 -22 C157 -27 77 -39 56 -10 C49 1 41 14 44 27 C49 43 56 57 72 63 C84 67 97 71 109 71 C141 68 166 68 194 70 C189 87 186 106 185 119 C184 159 181 198 181 238 C181 279 181 319 181 359 C181 390 182 436 182 436 C182 436 120 434 116 434 C103 434 90 436 78 444 C65 450 52 459 50 475 C49 487 52 509 63 520 C80 534 140 534 159 534 C233 534 211 534 283 543 C305 547 330 553 353 553 C366 553 380 551 392 544 C406 537 419 525 421 508 C424 493 420 475 406 467 C374 449 334 456 299 450 C278 447 278 447 278 447 C278 447 274 415 274 403 C270 363 268 325 268 284 C268 246 273 209 273 172 C273 149 272 94 283 78 C312 81 337 85 362 85 C376 85 390 84 402 78 C416 71 425 59 428 47 L428 47 Z M88 585 C121 583 249 593 280 596 C312 597 346 595 376 604 C398 612 425 631 415 658 C408 675 395 684 378 679 C336 671 194 664 152 661 C129 657 107 660 84 657 C70 655 59 655 53 639 C41 607 64 587 88 585 L88 585 Z " />
<glyph glyph-name="imacron" unicode="&#x12b;" horiz-adv-x="195" d="M10 564 C36 562 94 568 118 571 C144 572 170 570 194 579 C211 587 233 606 225 633 C219 650 209 659 196 654 C162 646 94 643 60 640 C42 636 25 639 7 636 C-4 634 -13 634 -18 618 C-27 586 -9 566 10 564 L10 564 Z M61 392 C59 357 58 323 57 288 C53 233 49 178 49 122 C49 83 48 49 63 14 C72 -8 89 -21 109 -9 C133 5 140 36 140 69 C140 94 136 120 134 141 C133 166 131 191 132 216 C133 246 136 275 137 305 C138 352 141 398 144 444 C145 460 149 480 145 497 C142 507 134 529 127 535 C118 544 98 537 89 530 C57 507 61 432 61 392 L61 392 Z " />
<glyph glyph-name="dotlessi" unicode="&#x131;" horiz-adv-x="195" d="M61 392 C59 357 58 323 57 288 C53 233 49 178 49 122 C49 83 48 49 63 14 C72 -8 89 -21 109 -9 C133 5 140 36 140 69 C140 94 136 120 134 141 C133 166 131 191 132 216 C133 246 136 275 137 305 C138 352 141 398 144 444 C145 460 149 480 145 497 C142 507 134 529 127 535 C118 544 98 537 89 530 C57 507 61 432 61 392 L61 392 Z " />
<glyph glyph-name="Lacute" unicode="&#x139;" horiz-adv-x="507" d="M70 356 C70 336 67 318 65 299 C53 240 52 165 52 105 C52 89 52 72 54 57 C57 36 66 16 89 5 C119 -10 162 -10 193 -6 C264 4 299 25 379 19 C427 20 469 23 476 74 C482 116 416 110 389 111 C348 114 310 110 273 103 C242 98 235 96 185 89 C175 88 160 85 144 88 C145 100 145 112 145 125 C145 138 145 153 145 164 C147 204 149 243 154 283 C158 317 155 352 159 385 C163 418 159 451 155 484 C153 511 134 557 98 551 C81 548 69 537 65 522 C57 502 70 388 70 356 L70 356 Z M184 645 C168 637 151 626 141 612 C135 603 137 595 145 589 C154 581 175 584 186 585 C225 589 286 612 320 632 C331 638 345 647 353 658 C360 667 356 676 351 682 C338 698 312 692 294 685 C267 672 212 658 184 645 L184 645 Z " />
<glyph glyph-name="lacute" unicode="&#x13a;" horiz-adv-x="467" d="M65 344 C66 278 57 210 57 144 C57 111 57 80 57 48 C57 6 82 -10 110 -8 C197 -3 323 -6 413 28 C440 48 434 80 409 98 C396 106 376 107 361 107 C344 106 283 89 266 87 C226 81 178 72 140 83 C138 98 135 112 137 129 C140 185 148 234 146 290 C146 335 155 366 155 398 C155 428 164 463 154 491 C147 511 125 541 102 534 C92 531 78 521 75 511 C71 499 71 486 71 473 C71 431 67 383 65 344 L65 344 Z M213 613 C197 605 180 594 170 580 C164 571 166 563 174 557 C183 549 204 552 215 553 C254 557 315 580 349 600 C360 606 374 615 382 626 C389 635 385 644 380 650 C367 666 341 660 323 653 C296 640 241 626 213 613 L213 613 Z " />
<glyph glyph-name="Lcaron" unicode="&#x13d;" horiz-adv-x="507" d="M70 356 C70 336 67 318 65 299 C53 240 52 165 52 105 C52 89 52 72 54 57 C57 36 66 16 89 5 C119 -10 162 -10 193 -6 C264 4 299 25 379 19 C427 20 469 23 476 74 C482 116 416 110 389 111 C348 114 310 110 273 103 C242 98 235 96 185 89 C175 88 160 85 144 88 C145 100 145 112 145 125 C145 138 145 153 145 164 C147 204 149 243 154 283 C158 317 155 352 159 385 C163 418 159 451 155 484 C153 511 134 557 98 551 C81 548 69 537 65 522 C57 502 70 388 70 356 L70 356 Z M366 578 C366 601 357 617 328 617 C291 617 291 590 276 546 C260 485 241 428 241 355 C241 335 251 314 277 314 C321 314 329 375 341 421 C353 467 366 522 366 565 C366 569 366 574 366 578 L366 578 Z " />
<glyph glyph-name="lcaron" unicode="&#x13e;" horiz-adv-x="453" d="M65 344 C66 278 57 210 57 144 C57 111 57 80 57 48 C57 6 82 -10 110 -8 C197 -3 323 -6 413 28 C440 48 434 80 409 98 C396 106 376 107 361 107 C344 106 283 89 266 87 C226 81 178 72 140 83 C138 98 135 112 137 129 C140 185 148 234 146 290 C146 335 155 366 155 398 C155 428 164 463 154 491 C147 511 125 541 102 534 C92 531 78 521 75 511 C71 499 71 486 71 473 C71 431 67 383 65 344 L65 344 Z M378 537 C378 560 369 576 340 576 C303 576 303 549 288 505 C272 444 253 387 253 314 C253 294 263 273 289 273 C333 273 341 334 353 380 C365 426 378 481 378 524 C378 528 378 533 378 537 L378 537 Z " />
<glyph glyph-name="Lslash" unicode="&#x141;" horiz-adv-x="555" d="M81 180 C90 182 98 185 107 188 C106 159 106 131 106 105 C106 89 106 72 108 57 C111 36 120 16 143 5 C173 -10 216 -10 247 -6 C318 4 353 25 433 19 C481 20 523 23 530 74 C536 116 470 110 443 111 C402 114 364 110 327 103 C296 98 289 96 239 89 C229 88 214 85 198 88 C199 100 199 112 199 125 L199 164 L202 229 C230 239 259 250 282 268 C304 286 325 320 302 349 C287 368 270 373 252 362 C238 353 224 345 210 338 C210 354 211 370 213 385 C217 418 213 451 209 484 C207 511 188 557 152 551 C135 548 123 537 119 522 C111 502 124 388 124 356 C124 336 121 318 119 299 C92 282 20 276 20 235 C21 189 53 174 81 180 L81 180 Z " />
<glyph glyph-name="lslash" unicode="&#x142;" horiz-adv-x="505" d="M82 180 C93 183 103 186 113 190 C112 175 112 159 112 144 L112 48 C112 6 137 -10 165 -8 C252 -3 378 -6 468 28 C495 48 489 80 464 98 C451 106 431 107 416 107 C399 106 338 89 321 87 C281 81 233 72 195 83 C193 98 190 112 192 129 C194 163 198 195 200 227 C229 238 259 249 283 268 C305 286 326 320 303 349 C288 368 271 373 253 362 C237 351 220 342 203 334 C206 358 210 377 210 398 C210 428 219 463 209 491 C202 511 180 541 157 534 C147 531 133 521 130 511 C126 499 126 486 126 473 C126 431 122 383 120 344 C120 328 120 312 119 297 C96 285 70 279 48 268 C33 260 21 256 21 235 C22 189 54 174 82 180 L82 180 Z " />
<glyph glyph-name="Nacute" unicode="&#x143;" horiz-adv-x="587" d="M62 283 C62 262 65 243 66 221 C66 157 66 108 61 61 C58 32 65 -8 98 -14 C152 -21 146 64 149 93 C149 158 149 204 149 250 C149 283 144 317 145 350 C145 356 146 359 146 363 C174 340 201 318 223 290 C262 233 316 175 360 120 C389 80 424 42 445 3 C453 -12 470 -19 485 -17 C524 -7 525 23 525 56 C523 93 521 132 521 171 C521 236 522 304 526 369 C528 384 528 400 530 416 C533 433 535 453 538 469 C545 504 535 544 520 551 C503 557 485 565 470 556 C458 548 454 541 449 528 C442 513 442 491 442 475 C441 455 440 436 440 415 C440 379 438 345 435 310 C430 272 426 232 426 195 C401 226 388 237 369 260 C316 328 262 383 213 440 C199 456 184 473 144 499 C120 515 86 527 65 506 C49 489 48 464 51 442 C56 389 62 335 62 283 L62 283 Z M246 589 C230 581 213 570 203 556 C197 547 199 539 207 533 C216 525 237 528 248 529 C287 533 348 556 382 576 C393 582 407 591 415 602 C422 611 418 620 413 626 C400 642 374 636 356 629 C329 616 274 602 246 589 L246 589 Z " />
<glyph glyph-name="nacute" unicode="&#x144;" horiz-adv-x="585" d="M67 345 C67 261 70 230 72 155 C73 125 69 98 71 69 C71 37 76 -10 115 -19 C156 -28 161 34 160 61 C159 110 160 155 157 206 C154 264 157 316 151 369 C172 345 194 309 209 287 C229 260 244 234 266 211 C289 184 306 153 329 125 C349 102 364 78 382 53 C407 17 417 -28 468 -25 C487 -23 494 0 496 18 C501 48 505 69 508 100 C514 182 518 260 527 343 C531 379 530 414 531 449 C532 472 531 493 523 515 C517 534 500 544 483 544 C469 544 455 537 450 520 C443 499 446 476 444 454 C436 353 430 254 420 160 C389 193 351 235 331 269 C302 317 270 360 239 402 C226 419 212 442 199 460 C187 475 178 490 166 503 C142 529 99 570 67 539 C50 524 45 509 45 493 C45 459 67 419 67 345 L67 345 Z M258 592 C242 584 225 573 215 559 C209 550 211 542 219 536 C228 528 249 531 260 532 C299 536 360 559 394 579 C405 585 419 594 427 605 C434 614 430 623 425 629 C412 645 386 639 368 632 C341 619 286 605 258 592 L258 592 Z " />
<glyph glyph-name="Ncaron" unicode="&#x147;" horiz-adv-x="587" d="M62 283 C62 262 65 243 66 221 C66 157 66 108 61 61 C58 32 65 -8 98 -14 C152 -21 146 64 149 93 C149 158 149 204 149 250 C149 283 144 317 145 350 C145 356 146 359 146 363 C174 340 201 318 223 290 C262 233 316 175 360 120 C389 80 424 42 445 3 C453 -12 470 -19 485 -17 C524 -7 525 23 525 56 C523 93 521 132 521 171 C521 236 522 304 526 369 C528 384 528 400 530 416 C533 433 535 453 538 469 C545 504 535 544 520 551 C503 557 485 565 470 556 C458 548 454 541 449 528 C442 513 442 491 442 475 C441 455 440 436 440 415 C440 379 438 345 435 310 C430 272 426 232 426 195 C401 226 388 237 369 260 C316 328 262 383 213 440 C199 456 184 473 144 499 C120 515 86 527 65 506 C49 489 48 464 51 442 C56 389 62 335 62 283 L62 283 Z M170 592 C191 560 259 510 285 510 C341 510 416 612 426 625 C429 629 430 632 430 635 C430 643 417 654 403 654 C365 654 339 612 319 596 C306 586 294 575 281 566 C243 591 210 652 176 652 C160 652 157 641 157 630 C157 614 158 605 170 592 L170 592 Z " />
<glyph glyph-name="ncaron" unicode="&#x148;" horiz-adv-x="585" d="M67 345 C67 261 70 230 72 155 C73 125 69 98 71 69 C71 37 76 -10 115 -19 C156 -28 161 34 160 61 C159 110 160 155 157 206 C154 264 157 316 151 369 C172 345 194 309 209 287 C229 260 244 234 266 211 C289 184 306 153 329 125 C349 102 364 78 382 53 C407 17 417 -28 468 -25 C487 -23 494 0 496 18 C501 48 505 69 508 100 C514 182 518 260 527 343 C531 379 530 414 531 449 C532 472 531 493 523 515 C517 534 500 544 483 544 C469 544 455 537 450 520 C443 499 446 476 444 454 C436 353 430 254 420 160 C389 193 351 235 331 269 C302 317 270 360 239 402 C226 419 212 442 199 460 C187 475 178 490 166 503 C142 529 99 570 67 539 C50 524 45 509 45 493 C45 459 67 419 67 345 L67 345 Z M183 592 C204 560 272 510 298 510 C354 510 429 612 439 625 C442 629 443 632 443 635 C443 643 430 654 416 654 C378 654 352 612 332 596 C319 586 307 575 294 566 C256 591 223 652 189 652 C173 652 170 641 170 630 C170 614 171 605 183 592 L183 592 Z " />
<glyph glyph-name="Omacron" unicode="&#x14c;" horiz-adv-x="678" d="M636 299 C630 331 626 369 610 400 C601 419 590 438 577 454 C559 477 539 498 521 520 C508 535 493 552 475 559 C450 568 420 571 396 574 C367 574 337 568 312 561 C259 548 209 524 167 490 C132 463 105 428 87 385 C71 349 50 313 43 274 C37 253 35 231 35 209 C35 190 37 172 41 153 C48 129 58 105 69 83 C80 57 102 45 123 28 C153 7 217 -25 248 -28 C264 -30 278 -31 294 -31 C325 -31 356 -27 384 -21 C405 -17 429 -10 447 -3 C472 9 491 26 512 41 C558 74 588 112 614 160 C635 199 644 251 636 299 L636 299 Z M513 189 C462 119 383 70 292 70 C275 70 259 71 241 75 C221 80 200 92 182 101 C167 109 150 119 140 134 C127 153 122 176 122 198 C122 216 124 235 129 251 C142 294 163 322 191 354 C219 384 248 416 283 438 C316 460 366 464 406 460 C425 458 445 449 463 438 C500 419 531 378 544 335 C550 318 552 299 553 281 C555 244 533 216 513 189 L513 189 Z M194 606 C227 604 355 614 386 617 C418 618 452 616 482 625 C504 633 531 652 521 679 C514 696 501 705 484 700 C442 692 300 685 258 682 C235 678 213 681 190 678 C176 676 165 676 159 660 C147 628 170 608 194 606 L194 606 Z " />
<glyph glyph-name="omacron" unicode="&#x14d;" horiz-adv-x="673" d="M635 335 C630 354 624 374 618 393 C606 431 587 468 560 497 C535 520 500 541 471 541 C445 542 420 546 394 543 C376 541 362 547 345 550 C328 552 308 547 291 543 C236 533 148 481 116 440 C93 410 74 379 58 343 C43 308 35 277 39 238 C41 220 44 202 46 184 C49 166 56 145 61 127 C70 93 88 67 114 43 C125 31 138 18 154 12 C215 -23 254 -23 315 -23 C394 -23 476 1 534 59 C561 87 586 119 603 155 C624 200 632 235 637 277 C640 296 639 317 635 335 L635 335 Z M531 224 C512 175 447 107 402 92 C380 84 359 79 337 75 C303 70 269 72 234 80 C165 94 125 168 128 238 C136 304 165 329 204 374 C224 396 255 420 282 433 C299 440 318 444 336 449 C348 451 359 455 372 453 C385 450 397 445 410 442 C441 437 474 440 506 425 C561 401 549 261 531 224 L531 224 Z M191 574 C224 572 352 582 383 585 C415 586 449 584 479 593 C501 601 528 620 518 647 C511 664 498 673 481 668 C439 660 297 653 255 650 C232 646 210 649 187 646 C173 644 162 644 156 628 C144 596 167 576 191 574 L191 574 Z " />
<glyph glyph-name="Ohungarumlaut" unicode="&#x150;" horiz-adv-x="678" d="M403 582 L399 573 C398 573 397 574 396 574 C378 574 360 572 343 568 C364 598 384 636 394 665 C399 676 403 692 403 706 C402 717 393 721 386 723 C365 727 349 705 340 688 C328 661 295 615 282 587 C276 575 272 561 270 548 C233 534 198 515 167 490 C132 463 105 428 87 385 C71 349 50 313 43 274 C37 253 35 231 35 209 C35 190 37 172 41 153 C48 129 58 105 69 83 C80 57 102 45 123 28 C153 7 217 -25 248 -28 C264 -30 278 -31 294 -31 C325 -31 356 -27 384 -21 C405 -17 429 -10 447 -3 C472 9 491 26 512 41 C558 74 588 112 614 160 C635 199 644 251 636 299 C630 331 626 369 610 400 C601 419 590 438 577 454 C559 477 539 498 521 520 C508 535 493 552 475 559 L463 562 C485 592 505 632 516 660 C520 671 525 687 524 701 C524 712 515 717 507 718 C487 722 471 701 462 684 C449 656 416 610 403 582 L403 582 Z M513 189 C462 119 383 70 292 70 C275 70 259 71 241 75 C221 80 200 92 182 101 C167 109 150 119 140 134 C127 153 122 176 122 198 C122 216 124 235 129 251 C142 294 163 322 191 354 C219 384 248 416 283 438 C316 460 366 464 406 460 C425 458 445 449 463 438 C500 419 531 378 544 335 C550 318 552 299 553 281 C555 244 533 216 513 189 L513 189 Z " />
<glyph glyph-name="ohungarumlaut" unicode="&#x151;" horiz-adv-x="673" d="M397 572 C393 563 389 553 387 542 C372 542 359 547 345 550 C340 550 336 551 331 550 C354 581 377 624 388 655 C393 666 397 682 397 696 C396 707 387 711 380 713 C359 717 343 695 334 678 C322 651 289 605 276 577 C270 564 265 550 264 536 C210 517 143 475 116 440 C93 410 74 379 58 343 C43 308 35 277 39 238 L46 184 C49 166 56 145 61 127 C70 93 88 67 114 43 C125 31 138 18 154 12 C215 -23 254 -23 315 -23 C394 -23 476 1 534 59 C561 87 586 119 603 155 C624 200 632 235 637 277 C640 296 639 317 635 335 C630 354 624 374 618 393 C606 431 587 468 560 497 C535 520 500 541 471 541 C464 541 456 541 449 542 C474 572 498 618 510 650 C514 661 519 677 518 691 C518 702 509 707 501 708 C481 712 465 691 456 674 C443 646 410 600 397 572 L397 572 Z M531 224 C512 175 447 107 402 92 C380 84 359 79 337 75 C303 70 269 72 234 80 C165 94 125 168 128 238 C136 304 165 329 204 374 C224 396 255 420 282 433 C299 440 318 444 336 449 C348 451 359 455 372 453 C385 450 397 445 410 442 C441 437 474 440 506 425 C561 401 549 261 531 224 L531 224 Z " />
<glyph glyph-name="OE" unicode="&#x152;" horiz-adv-x="981" d="M938 480 C959 498 955 515 940 535 C927 552 857 556 828 556 C773 556 712 554 656 543 C634 538 606 539 587 528 C571 517 567 490 565 468 C551 486 535 502 521 520 C508 535 493 552 475 559 C450 568 420 571 396 574 C367 574 337 568 312 561 C259 548 209 524 167 490 C132 463 105 428 87 385 C71 349 50 313 43 274 C37 253 35 231 35 209 C35 190 37 172 41 153 C48 129 58 105 69 83 C80 57 102 45 123 28 C153 7 217 -25 248 -28 C264 -30 278 -31 294 -31 C325 -31 356 -27 384 -21 C405 -17 429 -10 447 -3 C472 9 491 26 512 41 C529 53 544 65 557 79 C556 29 575 -16 630 -13 C658 -12 678 0 704 5 C729 10 826 19 852 22 C877 23 906 32 929 43 C945 49 960 72 952 96 C947 112 925 115 911 115 C898 115 884 119 841 111 C799 103 682 96 640 92 C640 122 642 125 645 147 C647 171 647 184 646 207 L687 216 C707 220 813 230 840 229 C863 228 890 229 914 241 C929 248 934 262 930 281 C924 313 877 319 835 319 C773 319 710 313 646 305 C647 331 643 367 645 379 C645 405 652 423 651 446 C695 458 825 468 871 466 C897 464 916 460 938 480 L938 480 Z M513 189 C462 119 383 70 292 70 C275 70 259 71 241 75 C221 80 200 92 182 101 C167 109 150 119 140 134 C127 153 122 176 122 198 C122 216 124 235 129 251 C142 294 163 322 191 354 C219 384 248 416 283 438 C316 460 366 464 406 460 C425 458 445 449 463 438 C500 419 531 378 544 335 C550 318 552 299 553 281 C555 244 533 216 513 189 L513 189 Z " />
<glyph glyph-name="oe" unicode="&#x153;" horiz-adv-x="997" d="M963 71 C969 94 950 100 942 102 C935 105 926 107 909 105 C844 96 776 89 703 89 C677 89 660 90 636 93 C633 123 645 159 646 189 C657 190 666 193 675 194 C716 203 748 213 790 213 C813 215 822 215 844 216 C866 217 910 221 929 231 C944 239 950 251 951 269 C951 286 926 296 911 297 C889 300 870 300 852 300 C830 300 809 300 782 299 C752 299 717 296 688 292 C677 291 662 290 650 288 L650 331 C650 362 653 392 653 438 C679 438 702 438 723 437 C748 436 765 438 791 438 C817 440 832 438 860 441 C879 442 910 445 929 454 C942 460 953 472 951 490 C950 504 927 521 915 524 C900 528 883 528 858 529 C834 530 822 528 798 528 C747 526 695 529 645 531 C633 531 609 535 600 528 C586 516 576 501 573 481 L560 497 C535 520 500 541 471 541 C445 542 420 546 394 543 C376 541 362 547 345 550 C328 552 308 547 291 543 C236 533 148 481 116 440 C93 410 74 379 58 343 C43 308 35 277 39 238 L46 184 C49 166 56 145 61 127 C70 93 88 67 114 43 C125 31 138 18 154 12 C215 -23 254 -23 315 -23 C394 -23 476 1 534 59 C537 62 540 66 544 69 C544 46 548 22 565 9 C580 -3 600 -6 616 -6 C644 -6 655 -6 672 -5 C745 -1 819 6 898 22 C931 31 954 32 963 71 L963 71 Z M531 224 C512 175 447 107 402 92 C380 84 359 79 337 75 C303 70 269 72 234 80 C165 94 125 168 128 238 C136 304 165 329 204 374 C224 396 255 420 282 433 C299 440 318 444 336 449 C348 451 359 455 372 453 C385 450 397 445 410 442 C441 437 474 440 506 425 C561 401 549 261 531 224 L531 224 Z " />
<glyph glyph-name="Racute" unicode="&#x154;" horiz-adv-x="555" d="M527 61 C522 78 495 96 468 114 C424 143 377 182 337 204 C332 207 309 224 305 226 C326 238 345 250 362 261 C402 286 407 294 428 319 C468 372 465 406 461 444 C459 464 446 491 433 508 C415 529 407 530 382 542 C353 556 320 560 288 564 C270 565 249 565 230 564 C206 561 186 555 163 551 C128 544 86 546 64 517 C49 499 51 472 51 447 C51 366 57 289 50 209 C48 162 45 117 49 70 C50 59 51 49 53 39 C56 19 60 -4 78 -14 C95 -25 116 -25 129 -10 C142 5 147 21 144 40 C143 57 137 72 137 91 C137 127 139 157 151 185 C151 185 177 187 177 187 C257 185 418 -10 509 23 C526 28 532 44 527 61 L527 61 Z M140 446 C141 457 206 472 217 473 C244 476 270 480 297 477 C318 475 332 468 350 459 C362 453 382 427 380 411 C358 333 214 273 145 282 C145 282 131 366 140 446 L140 446 Z M220 666 C204 658 187 647 177 633 C171 624 173 616 181 610 C190 602 211 605 222 606 C261 610 322 633 356 653 C367 659 381 668 389 679 C396 688 392 697 387 703 C374 719 348 713 330 706 C303 693 248 679 220 666 L220 666 Z " />
<glyph glyph-name="racute" unicode="&#x155;" horiz-adv-x="553" d="M524 52 C515 71 488 98 460 116 C449 124 437 131 427 138 C396 159 348 176 316 203 C346 215 366 234 391 251 C433 282 476 336 476 401 C476 419 472 438 464 458 C446 505 343 547 299 547 C287 547 274 548 263 548 C221 548 164 539 128 525 C114 520 85 511 75 499 C67 489 60 478 58 464 C56 444 60 429 60 409 C58 327 70 295 65 247 C62 219 61 189 58 153 C56 129 48 89 45 65 C43 36 48 5 61 -10 C71 -22 91 -26 102 -19 C128 -7 132 47 135 71 C137 93 141 120 146 162 C158 163 168 163 184 159 C223 151 310 99 339 80 C362 65 385 50 410 37 C437 23 462 5 490 5 C529 4 534 28 524 52 L524 52 Z M238 454 C291 454 305 454 318 453 C429 438 389 383 389 383 C373 354 363 348 339 325 C294 280 212 251 153 251 C152 312 153 371 149 429 C168 431 217 454 238 454 L238 454 Z M213 635 C197 627 180 616 170 602 C164 593 166 585 174 579 C183 571 204 574 215 575 C254 579 315 602 349 622 C360 628 374 637 382 648 C389 657 385 666 380 672 C367 688 341 682 323 675 C296 662 241 648 213 635 L213 635 Z " />
<glyph glyph-name="Rcaron" unicode="&#x158;" horiz-adv-x="555" d="M527 61 C522 78 495 96 468 114 C424 143 377 182 337 204 C332 207 309 224 305 226 C326 238 345 250 362 261 C402 286 407 294 428 319 C468 372 465 406 461 444 C459 464 446 491 433 508 C415 529 407 530 382 542 C353 556 320 560 288 564 C270 565 249 565 230 564 C206 561 186 555 163 551 C128 544 86 546 64 517 C49 499 51 472 51 447 C51 366 57 289 50 209 C48 162 45 117 49 70 C50 59 51 49 53 39 C56 19 60 -4 78 -14 C95 -25 116 -25 129 -10 C142 5 147 21 144 40 C143 57 137 72 137 91 C137 127 139 157 151 185 C151 185 177 187 177 187 C257 185 418 -10 509 23 C526 28 532 44 527 61 L527 61 Z M140 446 C141 457 206 472 217 473 C244 476 270 480 297 477 C318 475 332 468 350 459 C362 453 382 427 380 411 C358 333 214 273 145 282 C145 282 131 366 140 446 L140 446 Z M146 674 C167 642 235 592 261 592 C317 592 392 694 402 707 C405 711 406 714 406 717 C406 725 393 736 379 736 C341 736 315 694 295 678 C282 668 270 657 257 648 C219 673 186 734 152 734 C136 734 133 723 133 712 C133 696 134 687 146 674 L146 674 Z " />
<glyph glyph-name="rcaron" unicode="&#x159;" horiz-adv-x="553" d="M524 52 C515 71 488 98 460 116 C449 124 437 131 427 138 C396 159 348 176 316 203 C346 215 366 234 391 251 C433 282 476 336 476 401 C476 419 472 438 464 458 C446 505 343 547 299 547 C287 547 274 548 263 548 C221 548 164 539 128 525 C114 520 85 511 75 499 C67 489 60 478 58 464 C56 444 60 429 60 409 C58 327 70 295 65 247 C62 219 61 189 58 153 C56 129 48 89 45 65 C43 36 48 5 61 -10 C71 -22 91 -26 102 -19 C128 -7 132 47 135 71 C137 93 141 120 146 162 C158 163 168 163 184 159 C223 151 310 99 339 80 C362 65 385 50 410 37 C437 23 462 5 490 5 C529 4 534 28 524 52 L524 52 Z M238 454 C291 454 305 454 318 453 C429 438 389 383 389 383 C373 354 363 348 339 325 C294 280 212 251 153 251 C152 312 153 371 149 429 C168 431 217 454 238 454 L238 454 Z M129 664 C150 632 218 582 244 582 C300 582 375 684 385 697 C388 701 389 704 389 707 C389 715 376 726 362 726 C324 726 298 684 278 668 C265 658 253 647 240 638 C202 663 169 724 135 724 C119 724 116 713 116 702 C116 686 117 677 129 664 L129 664 Z " />
<glyph glyph-name="Sacute" unicode="&#x15a;" horiz-adv-x="562" d="M264 -27 C176 -27 26 1 26 107 C26 127 38 134 54 134 C69 134 81 129 92 115 C123 74 202 68 246 68 C315 68 434 108 434 187 C434 213 299 221 274 224 C218 228 96 258 87 337 C92 433 143 496 225 537 C262 554 301 570 341 570 C377 570 464 539 464 460 C464 438 453 420 433 420 C380 420 361 482 339 482 C272 472 180 407 180 365 C180 315 352 310 353 310 C419 306 533 275 533 184 C533 47 376 -27 264 -27 L264 -27 Z M249 653 C233 645 216 634 206 620 C200 611 202 603 210 597 C219 589 240 592 251 593 C290 597 351 620 385 640 C396 646 410 655 418 666 C425 675 421 684 416 690 C403 706 377 700 359 693 C332 680 277 666 249 653 L249 653 Z " />
<glyph glyph-name="sacute" unicode="&#x15b;" horiz-adv-x="588" d="M458 25 C411 -11 297 -34 241 -34 C217 -34 194 -30 171 -25 C135 -17 110 -15 83 5 C70 12 54 32 45 44 C31 65 30 87 35 103 C38 112 54 118 67 116 C76 116 85 109 94 105 C116 93 128 74 151 66 C168 63 185 62 202 62 C244 62 283 64 318 72 C366 84 469 120 454 181 C383 194 305 188 238 190 C199 194 136 207 107 238 C82 265 51 307 65 345 C80 384 123 449 155 476 C188 504 219 527 256 542 C293 559 328 562 365 553 C386 549 408 539 425 530 C447 520 462 499 468 482 C476 463 478 427 467 409 C460 400 444 396 435 396 C422 396 411 401 403 411 C389 429 377 451 358 463 C346 472 268 435 255 428 C219 407 173 365 164 327 C162 317 193 305 203 300 C215 295 235 288 248 288 C312 285 376 296 438 283 C476 278 520 243 538 211 C547 197 551 177 551 159 C551 96 504 57 458 25 L458 25 Z M255 639 C239 631 222 620 212 606 C206 597 208 589 216 583 C225 575 246 578 257 579 C296 583 357 606 391 626 C402 632 416 641 424 652 C431 661 427 670 422 676 C409 692 383 686 365 679 C338 666 283 652 255 639 L255 639 Z " />
<glyph glyph-name="Scedilla" unicode="&#x15e;" horiz-adv-x="562" d="M379 -34 C376 -25 372 -17 367 -9 C453 20 533 86 533 184 C533 275 419 306 353 310 C352 310 180 315 180 365 C180 407 272 472 339 482 C361 482 380 420 433 420 C453 420 464 438 464 460 C464 539 377 570 341 570 C301 570 262 554 225 537 C143 496 92 433 87 337 C96 258 218 228 274 224 C299 221 434 213 434 187 C434 108 315 68 246 68 C202 68 123 74 92 115 C81 129 69 134 54 134 C38 134 26 127 26 107 C26 1 176 -27 264 -27 L274 -27 C274 -27 275 -27 275 -28 C280 -37 300 -52 300 -63 C300 -72 275 -89 267 -91 C255 -95 251 -91 241 -87 C219 -78 207 -72 185 -78 C167 -83 137 -104 150 -127 C161 -148 192 -161 211 -166 C264 -180 330 -157 366 -109 C383 -87 388 -60 379 -34 L379 -34 Z " />
<glyph glyph-name="scedilla" unicode="&#x15f;" horiz-adv-x="588" d="M383 -37 C380 -28 376 -20 371 -13 C406 -3 438 9 458 25 C504 57 551 96 551 159 C551 177 547 197 538 211 C520 243 476 278 438 283 C376 296 312 285 248 288 C235 288 215 295 203 300 C193 305 162 317 164 327 C173 365 219 407 255 428 C268 435 346 472 358 463 C377 451 389 429 403 411 C411 401 422 396 435 396 C444 396 460 400 467 409 C478 427 476 463 468 482 C462 499 447 520 425 530 C408 539 386 549 365 553 C328 562 293 559 256 542 C219 527 188 504 155 476 C123 449 80 384 65 345 C51 307 82 265 107 238 C136 207 199 194 238 190 C305 188 383 194 454 181 C469 120 366 84 318 72 C283 64 244 62 202 62 C185 62 168 63 151 66 C128 74 116 93 94 105 C85 109 76 116 67 116 C54 118 38 112 35 103 C30 87 31 65 45 44 C54 32 70 12 83 5 C110 -15 135 -17 171 -25 C194 -30 217 -34 241 -34 C252 -34 265 -33 279 -31 C285 -40 304 -55 304 -66 C304 -75 279 -92 271 -94 C259 -98 255 -94 245 -90 C223 -81 211 -75 189 -81 C171 -86 141 -107 154 -130 C165 -151 196 -164 215 -169 C268 -183 334 -160 370 -112 C387 -90 392 -63 383 -37 L383 -37 Z " />
<glyph glyph-name="Scaron" unicode="&#x160;" horiz-adv-x="562" d="M264 -27 C176 -27 26 1 26 107 C26 127 38 134 54 134 C69 134 81 129 92 115 C123 74 202 68 246 68 C315 68 434 108 434 187 C434 213 299 221 274 224 C218 228 96 258 87 337 C92 433 143 496 225 537 C262 554 301 570 341 570 C377 570 464 539 464 460 C464 438 453 420 433 420 C380 420 361 482 339 482 C272 472 180 407 180 365 C180 315 352 310 353 310 C419 306 533 275 533 184 C533 47 376 -27 264 -27 L264 -27 Z M186 688 C207 656 275 606 301 606 C357 606 432 708 442 721 C445 725 446 728 446 731 C446 739 433 750 419 750 C381 750 355 708 335 692 C322 682 310 671 297 662 C259 687 226 748 192 748 C176 748 173 737 173 726 C173 710 174 701 186 688 L186 688 Z " />
<glyph glyph-name="scaron" unicode="&#x161;" horiz-adv-x="588" d="M458 25 C411 -11 297 -34 241 -34 C217 -34 194 -30 171 -25 C135 -17 110 -15 83 5 C70 12 54 32 45 44 C31 65 30 87 35 103 C38 112 54 118 67 116 C76 116 85 109 94 105 C116 93 128 74 151 66 C168 63 185 62 202 62 C244 62 283 64 318 72 C366 84 469 120 454 181 C383 194 305 188 238 190 C199 194 136 207 107 238 C82 265 51 307 65 345 C80 384 123 449 155 476 C188 504 219 527 256 542 C293 559 328 562 365 553 C386 549 408 539 425 530 C447 520 462 499 468 482 C476 463 478 427 467 409 C460 400 444 396 435 396 C422 396 411 401 403 411 C389 429 377 451 358 463 C346 472 268 435 255 428 C219 407 173 365 164 327 C162 317 193 305 203 300 C215 295 235 288 248 288 C312 285 376 296 438 283 C476 278 520 243 538 211 C547 197 551 177 551 159 C551 96 504 57 458 25 L458 25 Z M170 667 C191 635 259 585 285 585 C341 585 416 687 426 700 C429 704 430 707 430 710 C430 718 417 729 403 729 C365 729 339 687 319 671 C306 661 294 650 281 641 C243 666 210 727 176 727 C160 727 157 716 157 705 C157 689 158 680 170 667 L170 667 Z " />
<glyph glyph-name="uni0162" unicode="&#x162;" horiz-adv-x="497" d="M481 503 C486 528 455 550 434 553 C405 561 376 555 346 551 C272 546 198 539 120 531 C106 530 93 530 79 529 C66 529 52 529 40 524 C27 519 22 506 22 491 C22 477 27 462 37 453 C49 442 63 440 78 440 C90 440 105 442 118 442 C141 442 163 447 187 449 C183 399 187 346 190 272 C191 239 189 185 190 153 C191 135 194 119 196 101 C199 87 200 73 207 60 C213 48 224 39 237 38 C247 38 264 48 270 56 C290 78 287 114 284 140 C281 170 275 197 275 228 C275 284 278 367 278 429 C278 438 279 449 282 460 C314 460 347 462 381 464 C394 464 409 463 421 463 C450 463 475 476 481 503 L481 503 Z M299 -34 C298 -15 292 -1 273 10 C259 19 242 19 229 9 C214 -3 214 -17 211 -32 C200 -98 172 -115 164 -178 C162 -192 160 -212 168 -225 C176 -236 193 -248 208 -242 C267 -216 301 -87 299 -34 L299 -34 Z " />
<glyph glyph-name="uni0163" unicode="&#x163;" horiz-adv-x="534" d="M330 -34 C329 -15 323 -1 304 10 C290 19 273 19 260 9 C245 -3 245 -17 242 -32 C231 -98 203 -115 195 -178 C193 -192 191 -212 199 -225 C207 -236 224 -248 239 -242 C298 -216 332 -87 330 -34 L330 -34 Z M500 467 C507 482 507 507 493 519 C472 537 445 542 418 542 C393 542 369 538 348 538 C308 539 278 537 239 533 C204 528 6 536 34 463 C39 451 53 437 65 432 C85 423 107 424 125 429 C146 436 169 436 191 436 C209 436 218 437 235 437 C234 416 238 389 238 371 C239 336 241 301 241 268 C239 226 235 229 235 177 C235 150 237 123 239 100 C242 78 243 82 253 61 C259 49 281 39 294 41 C306 44 314 57 316 69 C317 91 318 113 318 135 C318 166 321 197 322 229 C323 277 326 325 323 378 C322 401 327 424 328 447 C347 450 369 450 388 451 C412 454 436 451 460 450 C480 449 493 449 500 467 L500 467 Z " />
<glyph glyph-name="Tcaron" unicode="&#x164;" horiz-adv-x="506" d="M481 503 C475 476 450 463 421 463 C409 463 394 464 381 464 C347 462 314 460 282 460 C279 449 278 438 278 429 C278 400 273 318 271 290 C270 259 275 207 275 176 C275 145 281 118 284 88 C287 62 290 26 270 4 C264 -4 247 -14 237 -14 C224 -13 213 -4 207 8 C200 21 199 35 196 49 C194 67 191 83 190 101 C189 133 191 239 190 272 C187 346 183 399 187 449 C163 447 141 442 118 442 C105 442 90 440 78 440 C63 440 49 442 37 453 C27 462 22 477 22 491 C22 506 27 519 40 524 C52 529 66 529 79 529 C93 530 106 530 120 531 C198 539 272 546 346 551 C376 555 405 561 434 553 C455 550 486 528 481 503 L481 503 Z M129 663 C150 631 218 581 244 581 C300 581 375 683 385 696 C388 700 389 703 389 706 C389 714 376 725 362 725 C324 725 298 683 278 667 C265 657 253 646 240 637 C202 662 169 723 135 723 C119 723 116 712 116 701 C116 685 117 676 129 663 L129 663 Z " />
<glyph glyph-name="tcaron" unicode="&#x165;" horiz-adv-x="532" d="M161 643 C182 611 250 561 276 561 C332 561 407 663 417 676 C420 680 421 683 421 686 C421 694 408 705 394 705 C356 705 330 663 310 647 C297 637 285 626 272 617 C234 642 201 703 167 703 C151 703 148 692 148 681 C148 665 149 656 161 643 L161 643 Z M500 467 C493 449 480 449 460 450 C436 451 412 454 388 451 C369 450 347 450 328 447 C327 424 322 401 323 378 C325 347 326 317 325 286 C323 248 323 209 322 172 C321 140 318 109 318 78 C318 56 317 34 316 12 C314 0 306 -13 294 -16 C281 -18 259 -8 253 4 C243 25 242 21 239 43 C237 66 235 93 235 120 C235 172 239 226 241 268 C241 301 239 336 238 371 C238 389 234 416 235 437 C218 437 209 436 191 436 C169 436 146 436 125 429 C107 424 85 423 65 432 C53 437 39 451 34 463 C6 536 204 528 239 533 C278 537 308 539 348 538 C369 538 393 542 418 542 C445 542 472 537 493 519 C507 507 507 482 500 467 L500 467 Z " />
<glyph glyph-name="Umacron" unicode="&#x16a;" horiz-adv-x="579" d="M56 241 C61 193 63 80 96 41 C128 1 141 -8 194 -19 C238 -31 338 -6 379 10 C421 27 482 39 491 94 C497 142 507 193 507 242 C507 296 519 349 523 405 C524 429 528 453 532 477 C537 506 542 524 520 548 C506 564 475 573 460 555 C447 541 440 511 436 491 C426 440 425 381 425 326 C423 273 419 217 413 167 C410 136 375 114 348 106 C320 98 294 94 266 91 C209 81 166 128 156 176 C149 212 147 253 147 292 C147 308 147 325 148 339 C150 374 156 412 156 450 C156 464 156 478 153 493 C150 512 126 535 105 541 C75 551 66 517 64 497 C59 455 59 414 57 372 C56 343 55 312 55 282 C55 268 55 255 56 241 L56 241 Z M144 583 C177 581 305 591 336 594 C368 595 402 593 432 602 C454 610 481 629 471 656 C464 673 451 682 434 677 C392 669 250 662 208 659 C185 655 163 658 140 655 C126 653 115 653 109 637 C97 605 120 585 144 583 L144 583 Z " />
<glyph glyph-name="umacron" unicode="&#x16b;" horiz-adv-x="546" d="M153 304 C153 335 156 361 157 391 C159 428 165 504 117 516 C69 526 56 468 63 432 C67 412 68 396 68 374 C68 347 64 318 63 290 C62 251 60 213 60 175 C60 156 60 138 62 118 C66 70 107 19 151 -3 C166 -10 184 -13 204 -13 C235 -13 267 -6 294 -1 C345 8 409 27 434 75 C448 100 460 118 465 145 C475 178 477 216 482 251 C492 321 497 393 504 463 C505 486 504 507 488 524 C474 539 451 546 434 530 C416 513 411 491 412 468 C412 442 415 416 412 391 C408 331 406 270 391 212 C382 173 372 128 331 109 C307 97 281 96 257 91 C245 88 230 87 216 87 C201 87 186 88 177 94 C147 112 157 144 153 177 C152 194 153 217 153 234 C153 273 153 291 153 304 L153 304 Z M128 553 C161 551 289 561 320 564 C352 565 386 563 416 572 C438 580 465 599 455 626 C448 643 435 652 418 647 C376 639 234 632 192 629 C169 625 147 628 124 625 C110 623 99 623 93 607 C81 575 104 555 128 553 L128 553 Z " />
<glyph glyph-name="Uring" unicode="&#x16e;" horiz-adv-x="579" d="M56 241 C61 193 63 80 96 41 C128 1 141 -8 194 -19 C238 -31 338 -6 379 10 C421 27 482 39 491 94 C497 142 507 193 507 242 C507 296 519 349 523 405 C524 429 528 453 532 477 C537 506 542 524 520 548 C506 564 475 573 460 555 C447 541 440 511 436 491 C426 440 425 381 425 326 C423 273 419 217 413 167 C410 136 375 114 348 106 C320 98 294 94 266 91 C209 81 166 128 156 176 C149 212 147 253 147 292 C147 308 147 325 148 339 C150 374 156 412 156 450 C156 464 156 478 153 493 C150 512 126 535 105 541 C75 551 66 517 64 497 C59 455 59 414 57 372 C56 343 55 312 55 282 C55 268 55 255 56 241 L56 241 Z M385 671 C373 688 351 692 333 699 C327 700 319 701 312 701 C267 700 213 671 191 631 C175 602 192 567 209 543 C228 518 254 506 285 502 C322 497 349 516 372 541 C393 562 404 589 404 615 C404 634 398 653 385 671 L385 671 Z M332 596 C324 564 294 551 267 572 C254 581 249 595 258 609 C266 621 285 631 300 634 C303 635 336 642 336 634 C336 621 336 608 332 596 L332 596 Z " />
<glyph glyph-name="uring" unicode="&#x16f;" horiz-adv-x="546" d="M153 304 C153 335 156 361 157 391 C159 428 165 504 117 516 C69 526 56 468 63 432 C67 412 68 396 68 374 C68 347 64 318 63 290 C62 251 60 213 60 175 C60 156 60 138 62 118 C66 70 107 19 151 -3 C166 -10 184 -13 204 -13 C235 -13 267 -6 294 -1 C345 8 409 27 434 75 C448 100 460 118 465 145 C475 178 477 216 482 251 C492 321 497 393 504 463 C505 486 504 507 488 524 C474 539 451 546 434 530 C416 513 411 491 412 468 C412 442 415 416 412 391 C408 331 406 270 391 212 C382 173 372 128 331 109 C307 97 281 96 257 91 C245 88 230 87 216 87 C201 87 186 88 177 94 C147 112 157 144 153 177 C152 194 153 217 153 234 C153 273 153 291 153 304 L153 304 Z M370 668 C358 685 336 689 318 696 C312 697 304 698 297 698 C252 697 198 668 176 628 C160 599 177 564 194 540 C213 515 239 503 270 499 C307 494 334 513 357 538 C378 559 389 586 389 612 C389 631 383 650 370 668 L370 668 Z M317 593 C309 561 279 548 252 569 C239 578 234 592 243 606 C251 618 270 628 285 631 C288 632 321 639 321 631 C321 618 321 605 317 593 L317 593 Z " />
<glyph glyph-name="Uhungarumlaut" unicode="&#x170;" horiz-adv-x="579" d="M56 241 C61 193 63 80 96 41 C128 1 141 -8 194 -19 C238 -31 338 -6 379 10 C421 27 482 39 491 94 C497 142 507 193 507 242 C507 296 519 349 523 405 C524 429 528 453 532 477 C537 506 542 524 520 548 C506 564 475 573 460 555 C447 541 440 511 436 491 C426 440 425 381 425 326 C423 273 419 217 413 167 C410 136 375 114 348 106 C320 98 294 94 266 91 C209 81 166 128 156 176 C149 212 147 253 147 292 C147 308 147 325 148 339 C150 374 156 412 156 450 C156 464 156 478 153 493 C150 512 126 535 105 541 C75 551 66 517 64 497 C59 455 59 414 57 372 C56 343 55 312 55 282 C55 268 55 255 56 241 L56 241 Z M208 589 C200 573 195 553 196 536 C197 525 204 520 214 521 C226 521 240 537 248 544 C275 573 307 629 320 667 C325 678 329 694 329 708 C328 719 319 723 312 725 C291 729 275 707 266 690 C254 663 221 617 208 589 L208 589 Z M329 584 C322 568 316 548 318 531 C319 520 325 516 335 516 C347 516 362 532 369 540 C397 568 428 625 442 662 C446 673 451 689 450 703 C450 714 441 719 433 720 C413 724 397 703 388 686 C375 658 342 612 329 584 L329 584 Z " />
<glyph glyph-name="uhungarumlaut" unicode="&#x171;" horiz-adv-x="546" d="M153 304 C153 335 156 361 157 391 C159 428 165 504 117 516 C69 526 56 468 63 432 C67 412 68 396 68 374 C68 347 64 318 63 290 C62 251 60 213 60 175 C60 156 60 138 62 118 C66 70 107 19 151 -3 C166 -10 184 -13 204 -13 C235 -13 267 -6 294 -1 C345 8 409 27 434 75 C448 100 460 118 465 145 C475 178 477 216 482 251 C492 321 497 393 504 463 C505 486 504 507 488 524 C474 539 451 546 434 530 C416 513 411 491 412 468 C412 442 415 416 412 391 C408 331 406 270 391 212 C382 173 372 128 331 109 C307 97 281 96 257 91 C245 88 230 87 216 87 C201 87 186 88 177 94 C147 112 157 144 153 177 C152 194 153 217 153 234 C153 273 153 291 153 304 L153 304 Z M196 588 C188 572 183 552 184 535 C185 524 192 519 202 520 C214 520 228 536 236 543 C263 572 295 628 308 666 C313 677 317 693 317 707 C316 718 307 722 300 724 C279 728 263 706 254 689 C242 662 209 616 196 588 L196 588 Z M317 583 C310 567 304 547 306 530 C307 519 313 515 323 515 C335 515 350 531 357 539 C385 567 416 624 430 661 C434 672 439 688 438 702 C438 713 429 718 421 719 C401 723 385 702 376 685 C363 657 330 611 317 583 L317 583 Z " />
<glyph glyph-name="Ydieresis" unicode="&#x178;" horiz-adv-x="539" d="M524 537 C524 562 501 565 479 564 C444 560 432 528 416 502 C395 471 375 430 357 397 C339 363 336 356 319 322 C310 328 302 336 294 342 C266 366 230 390 207 419 C175 456 127 496 85 522 C66 532 51 539 35 526 C20 513 18 495 23 474 C32 442 50 424 76 404 C109 380 131 358 161 333 C188 313 212 288 238 266 C251 256 261 247 278 234 C272 222 254 182 249 171 C231 140 216 108 197 72 C188 57 180 41 178 23 C175 0 184 -9 204 -17 C245 -34 263 13 285 41 C311 76 326 116 347 154 C361 181 374 207 387 234 C400 262 410 291 423 319 C449 376 483 429 510 484 C519 500 524 519 524 537 L524 537 Z M389 624 C380 629 371 625 360 623 C319 602 305 603 305 572 C305 549 317 534 340 534 C352 534 355 540 364 546 C369 552 406 566 406 601 C406 611 397 622 389 624 L389 624 Z M243 604 C235 610 226 618 215 618 C160 618 148 578 149 581 C148 576 148 572 148 566 C148 545 169 534 187 534 C211 539 250 576 250 593 C250 597 247 603 243 604 L243 604 Z " />
<glyph glyph-name="Zacute" unicode="&#x179;" horiz-adv-x="519" d="M166 531 C185 534 206 535 226 538 C263 543 300 544 338 544 C352 544 366 546 379 546 C404 546 427 541 440 513 C457 478 429 431 407 402 C371 353 332 304 292 256 C254 207 203 150 170 98 C216 102 251 100 290 106 C320 110 349 111 379 115 C400 118 416 124 436 131 C455 136 472 134 481 118 C530 21 294 16 252 12 C221 8 189 8 158 6 C133 5 102 -8 79 0 C49 9 34 39 34 67 C34 84 39 102 52 115 C106 173 162 231 213 292 C233 314 248 340 268 362 C282 380 296 398 308 418 C317 429 326 442 336 453 C305 455 274 451 245 447 C211 442 179 440 146 429 C126 422 110 410 88 422 C75 429 57 450 58 467 C66 528 119 526 166 531 L166 531 Z M196 633 C180 625 163 614 153 600 C147 591 149 583 157 577 C166 569 187 572 198 573 C237 577 298 600 332 620 C343 626 357 635 365 646 C372 655 368 664 363 670 C350 686 324 680 306 673 C279 660 224 646 196 633 L196 633 Z " />
<glyph glyph-name="zacute" unicode="&#x17a;" horiz-adv-x="490" d="M252 537 C288 538 325 542 359 542 C396 542 442 520 438 478 C433 433 412 388 387 350 C367 323 352 295 331 268 C312 243 294 220 273 197 C242 164 216 124 190 88 C238 85 322 92 370 94 C388 94 406 101 424 98 C438 96 458 84 462 69 C466 56 451 35 442 26 C429 12 411 10 394 6 C337 -6 244 -6 186 -9 C164 -10 142 -12 120 -13 C87 -15 46 -4 57 43 C61 70 81 92 98 112 C123 142 142 177 167 207 C193 238 217 270 244 301 C280 342 311 394 334 444 C303 440 272 447 243 445 C229 445 216 445 203 445 C161 445 133 437 105 437 C87 437 71 441 66 454 C58 473 67 495 80 511 C97 529 125 534 149 533 C184 533 219 535 252 537 L252 537 Z M207 628 C191 620 174 609 164 595 C158 586 160 578 168 572 C177 564 198 567 209 568 C248 572 309 595 343 615 C354 621 368 630 376 641 C383 650 379 659 374 665 C361 681 335 675 317 668 C290 655 235 641 207 628 L207 628 Z " />
<glyph glyph-name="Zdotaccent" unicode="&#x17b;" horiz-adv-x="519" d="M166 531 C185 534 206 535 226 538 C263 543 300 544 338 544 C352 544 366 546 379 546 C404 546 427 541 440 513 C457 478 429 431 407 402 C371 353 332 304 292 256 C254 207 203 150 170 98 C216 102 251 100 290 106 C320 110 349 111 379 115 C400 118 416 124 436 131 C455 136 472 134 481 118 C530 21 294 16 252 12 C221 8 189 8 158 6 C133 5 102 -8 79 0 C49 9 34 39 34 67 C34 84 39 102 52 115 C106 173 162 231 213 292 C233 314 248 340 268 362 C282 380 296 398 308 418 C317 429 326 442 336 453 C305 455 274 451 245 447 C211 442 179 440 146 429 C126 422 110 410 88 422 C75 429 57 450 58 467 C66 528 119 526 166 531 L166 531 Z M303 651 C295 657 286 665 275 665 C220 665 208 625 209 628 C208 623 208 619 208 613 C208 592 229 581 247 581 C271 586 310 623 310 640 C310 644 307 650 303 651 L303 651 Z " />
<glyph glyph-name="zdotaccent" unicode="&#x17c;" horiz-adv-x="490" d="M252 537 C288 538 325 542 359 542 C396 542 442 520 438 478 C433 433 412 388 387 350 C367 323 352 295 331 268 C312 243 294 220 273 197 C242 164 216 124 190 88 C238 85 322 92 370 94 C388 94 406 101 424 98 C438 96 458 84 462 69 C466 56 451 35 442 26 C429 12 411 10 394 6 C337 -6 244 -6 186 -9 C164 -10 142 -12 120 -13 C87 -15 46 -4 57 43 C61 70 81 92 98 112 C123 142 142 177 167 207 C193 238 217 270 244 301 C280 342 311 394 334 444 C303 440 272 447 243 445 C229 445 216 445 203 445 C161 445 133 437 105 437 C87 437 71 441 66 454 C58 473 67 495 80 511 C97 529 125 534 149 533 C184 533 219 535 252 537 L252 537 Z M299 650 C291 656 282 664 271 664 C216 664 204 624 205 627 C204 622 204 618 204 612 C204 591 225 580 243 580 C267 585 306 622 306 639 C306 643 303 649 299 650 L299 650 Z " />
</font>
</svg>
